Böhse Onkelz – Onkelz wie Wir




No Cover available


Artist: Böhse Onkelz
Year: 1985
Genre: Oi
Notes: Discogs
Add. Notes:
Watch Songs on: YouTube
Cover incl.: Yes
Encoder: FLAC
Bitrate: ~900 kBit/s (44.1 kHz/16 Bit/s)
Log & Cue incl.: Yes/Yes
Size: 217,33 MB
Password: “slam” (without ” “)


All Downloads/Hosters are compatible

Download 1
KatFile.com
Rapidgator.net
NitroFlare.com
DDownload.com
Download 2
KatFile.com
Rapidgator.net
NitroFlare.com
DDownload.com

Tracklist:

1  - Onkelz Wie Wir  - 4:09
2  - Von Glas Zu Glas  - 2:25
3  - Erinnerungen  - 4:23
4  - Bomberpilot  - 3:16
5  - Dick + Durstig  - 2:12
6  - Falsche Propheten  - 3:59
7  - Am Morgen Danach  - 3:42
8  - Schöner Tag  - 3:17
9  - Heut Nacht  - 3:01
10  - !  - 1:46

EAC-Log, CUE-Sheed & NFO:

Click to open spoiler
Exact Audio Copy V0.99 prebeta 4 from 23. January 2008

Îò÷¸ò EAC îá èçâëå÷åíèè, âûïîëíåííîì 8. ìàÿ 2008, 15:50

Boehse Onkelz / Onkelz wie Wir

Äèñêîâîä: Optiarc DVD RW AD-7170A Adapter: 0 ID: 0

Ðåæèì ÷òåíèÿ : Äîñòîâåðíîñòü
Èñïîëüçîâàíèå òî÷íîãî ïîòîêà : Äà
Îòêëþ÷åíèå êýøà àóäèî : Äà
Èñïîëüçîâàíèå óêàçàòåëåé C2 : Íåò

Êîððåêöèÿ ñìåùåíèÿ ïðè ÷òåíèè : 48
Ñïîñîáíîñòü ÷èòàòü îáëàñòè Lead-in è Lead-out : Íåò
Çàïîëíåíèå ïðîïóùåííûõ ñýìïëîâ òèøèíîé : Äà
Óäàëåíèå áëîêîâ ñ òèøèíîé â íà÷àëå è êîíöå : Íåò
Ïðè âû÷èñëåíèÿõ CRC èñïîëüçîâàëèñü íóëåâûå ñýìïëû : Äà
Èíòåðôåéñ : Âñòðîåííûé Win32-èíòåðôåéñ äëÿ Win NT/2000

Âûõîäíîé ôîðìàò : Ïîëüçîâàòåëüñêèé êîäèðîâùèê
Âûáðàííûé áèòðåéò : 768 kBit/s
Êà÷åñòâî : Âûñîêèé
Äîáàâëåíèå ID3-òýãà : Íåò
Óòèëèòà ñæàòèÿ : C:\Program Files\Exact Audio Copy\FLAC\FLAC.EXE
Äîïîëíèòåëüíûå ïàðàìåòðû : -6 -V -T “ARTIST=%a” -T “TITLE=%t” -T “ALBUM=%g” -T “DATE=%y” -T “TRACKNUMBER=%n” -T “GENRE=%m” -T “COMMENT=%e” %s -o %d

TOC èçâëå÷¸ííîãî CD

Òðåê | Ñòàðò | Äëèòåëüíîñòü | Íà÷àëüíûé ñåêòîð | Êîíå÷íûé ñåêòîð
———————————————————————
1 | 0:00.00 | 4:09.00 | 0 | 18674
2 | 4:09.00 | 2:25.00 | 18675 | 29549
3 | 6:34.00 | 4:23.15 | 29550 | 49289
4 | 10:57.15 | 3:16.60 | 49290 | 64049
5 | 14:14.00 | 2:12.00 | 64050 | 73949
6 | 16:26.00 | 3:59.37 | 73950 | 91911
7 | 20:25.37 | 3:42.38 | 91912 | 108599
8 | 24:08.00 | 3:17.00 | 108600 | 123374
9 | 27:25.00 | 3:01.00 | 123375 | 136949
10 | 30:26.00 | 1:46.02 | 136950 | 144901

Õàðàêòåðèñòèêè äèàïàçîíà èçâëå÷åíèÿ è ñîîáùåíèÿ îá îøèáêàõ

Âûáðàííûé äèàïàçîí

Èìÿ ôàéëà Q:\Boehse Onkelz\BO_-_5_albums\Onkelz wie Wir (1995)\Boehse Onkelz – Onkelz wie Wir.wav

Ïèêîâûé óðîâåíü 100.0 %
Êà÷åñòâî äèàïàçîíà 99.9 %
CRC êîïèè F4416573
Êîïèðîâàíèå… OK

Îøèáîê íå ïðîèçîøëî

AccurateRip: ñâîäêà

Òðåê 1 òî÷íîå èçâëå÷åíèå (äîâåðèå 2) [623B6125]
Òðåê 2 òî÷íîå èçâëå÷åíèå (äîâåðèå 2) [5415B39C]
Òðåê 3 òî÷íîå èçâëå÷åíèå (äîâåðèå 2) [399232FD]
Òðåê 4 òî÷íîå èçâëå÷åíèå (äîâåðèå 2) [1B0371DA]
Òðåê 5 òî÷íîå èçâëå÷åíèå (äîâåðèå 2) [0A4CDC2B]
Òðåê 6 òî÷íîå èçâëå÷åíèå (äîâåðèå 2) [20A163D2]
Òðåê 7 òî÷íîå èçâëå÷åíèå (äîâåðèå 2) [85A42A68]
Òðåê 8 òî÷íîå èçâëå÷åíèå (äîâåðèå 2) [1ED6DB28]
Òðåê 9 òî÷íîå èçâëå÷åíèå (äîâåðèå 2) [6B6D380D]
Òðåê 10 òî÷íîå èçâëå÷åíèå (äîâåðèå 2) [F0805436]

Âñå òðåêè èçâëå÷åíû òî÷íî

Êîíåö îò÷¸òà

REM GENRE Rock
REM DATE 1985
REM DISCID 97078C0A
REM COMMENT “ExactAudioCopy v0.99pb4”
PERFORMER “Boehse Onkelz”
TITLE “Onkelz wie Wir”
FILE “Boehse Onkelz – Onkelz wie Wir.flac” WAVE
TRACK 01 AUDIO
TITLE “Onkelz wie wir”
PERFORMER “Boehse Onkelz”
INDEX 01 00:00:00
TRACK 02 AUDIO
TITLE “Von Glas zu Glas”
PERFORMER “Boehse Onkelz”
INDEX 00 04:08:00
INDEX 01 04:09:00
TRACK 03 AUDIO
TITLE “Erinnerungen”
PERFORMER “Boehse Onkelz”
INDEX 00 06:33:10
INDEX 01 06:34:00
TRACK 04 AUDIO
TITLE “Bomberpilot”
PERFORMER “Boehse Onkelz”
INDEX 00 10:56:49
INDEX 01 10:57:15
TRACK 05 AUDIO
TITLE “Dick + Durstig”
PERFORMER “Boehse Onkelz”
INDEX 00 14:12:65
INDEX 01 14:14:00
TRACK 06 AUDIO
TITLE “Flasche Propheten”
PERFORMER “Boehse Onkelz”
INDEX 00 16:24:45
INDEX 01 16:26:00
TRACK 07 AUDIO
TITLE “Am Morgen danach”
PERFORMER “Boehse Onkelz”
INDEX 00 20:24:68
INDEX 01 20:25:37
TRACK 08 AUDIO
TITLE “Schöner Tag”
PERFORMER “Boehse Onkelz”
INDEX 00 24:07:18
INDEX 01 24:08:00
TRACK 09 AUDIO
TITLE “Heut Nacht”
PERFORMER “Boehse Onkelz”
INDEX 00 27:24:03
INDEX 01 27:25:00
TRACK 10 AUDIO
TITLE “!”
PERFORMER “Boehse Onkelz”
INDEX 00 30:25:03
INDEX 01 30:26:00


Leave a Reply

Your email address will not be published. Required fields are marked *

This site uses Akismet to reduce spam. Learn how your comment data is processed.