Böhse Onkelz – Memento




Artist: Böhse Onkelz
Year: 2016
Genre: Rock
Notes: Discogs
Add. Notes:
Cover incl.: No
Encoder: FLAC
Bitrate: ~1000 kBit/s (44.1 kHz/16 Bit/s)
Log & Cue incl.: Yes
Size: 417,32 MB
Password: “slam” (without ” “)


All Downloads/Hosters are compatible

Download 1
Turbobit.net
KatFile.com
Rapidgator.net
ddl.to
Download 2
Turbobit.net
KatFile.com
Rapidgator.net
ddl.to

Tracklist:

1 - Gott Hat Ein Problem - 5:02
2 - Frei - 4:24
3 - Markt Und Moral - 3:55
4 - Jeder Kriegt Was Er Verdient - 4:49
5 - Mach's Dir Selbst - 3:31
6 - Irgendwas Für Nichts - 3:27
7 - Wo Auch Immer Wir Stehen - 6:38
8 - Es Ist Sinnlos Mit Sich Selbst Zu Spaßen - 4:40
9 - Der Junge Mit Dem Schwefelholz - 7:44
10 - Nach Allen Regeln Der Sucht - 5:05
11 - Auf Die Freundschaft - 4:10
12 - 52 Wochen - 3:19

EAC-Log, CUE-Sheed & NFO:

Click to open spoiler
Exact Audio Copy V1.3 from 2. September 2016

EAC extraction logfile from 27. October 2016, 17:29

Böhse Onkelz / Memento

Used drive : HL-DT-STBD-RE BH16NS40 Adapter: 1 ID: 0

Read mode : Secure
Utilize accurate stream : Yes
Defeat audio cache : Yes
Make use of C2 pointers : No

Read offset correction : 6
Overread into Lead-In and Lead-Out : No
Fill up missing offset samples with silence : Yes
Delete leading and trailing silent blocks : No
Null samples used in CRC calculations : Yes
Used interface : Native Win32 interface for Win NT & 2000
Gap handling : Appended to previous track

Used output format : User Defined Encoder
Selected bitrate : 1024 kBit/s
Quality : High
Add ID3 tag : No
Command line compressor : C:\Program Files (x86)\Exact Audio Copy\Flac\flac.exe
Additional command line options : -8 -e -V -T “ARTIST=%artist%” -T “TITLE=%title%” -T “ALBUM=%albumtitle%” -T “DATE=%year%” -T “TRACKNUMBER=%tracknr%” -T “GENRE=%genre%” -T “PERFORMER=%albuminterpret%” -T “COMPOSER=%composer%” %haslyrics%–tag-from-file=LYRICS=”%lyricsfile%”%haslyrics% -T “ALBUMARTIST=%albumartist%” -T “DISCNUMBER=%cdnumber%” -T “TOTALDISCS=%totalcds%” -T “TOTALTRACKS=%numtracks%” -T “COMMENT=%comment%” %source% -o %dest%

TOC of the extracted CD

Track | Start | Length | Start sector | End sector
———————————————————
1 | 0:00.00 | 5:01.72 | 0 | 22646
2 | 5:01.72 | 4:23.66 | 22647 | 42437
3 | 9:25.63 | 3:55.33 | 42438 | 60095
4 | 13:21.21 | 4:49.22 | 60096 | 81792
5 | 18:10.43 | 3:31.32 | 81793 | 97649
6 | 21:42.00 | 3:26.52 | 97650 | 113151
7 | 25:08.52 | 6:38.24 | 113152 | 143025
8 | 31:47.01 | 4:40.18 | 143026 | 164043
9 | 36:27.19 | 7:43.36 | 164044 | 198804
10 | 44:10.55 | 5:05.29 | 198805 | 221708
11 | 49:16.09 | 4:09.56 | 221709 | 240439
12 | 53:25.65 | 3:19.32 | 240440 | 255396

Track 1

Filename E:\Musik\Böhse Onkelz – Memento [FLAC]\01 – Böhse Onkelz – Gott hat ein Problem.wav

Pre-gap length 0:00:02.00

Peak level 96.6 %
Extraction speed 1.2 X
Track quality 100.0 %
Test CRC F957732E
Copy CRC F957732E
Track not present in AccurateRip database
Copy OK

Track 2

Filename E:\Musik\Böhse Onkelz – Memento [FLAC]\02 – Böhse Onkelz – Frei.wav

Peak level 96.9 %
Extraction speed 1.3 X
Track quality 100.0 %
Test CRC 25ED4555
Copy CRC 25ED4555
Track not present in AccurateRip database
Copy OK

Track 3

Filename E:\Musik\Böhse Onkelz – Memento [FLAC]\03 – Böhse Onkelz – Markt und Moral.wav

Peak level 97.1 %
Extraction speed 1.4 X
Track quality 100.0 %
Test CRC D93558EE
Copy CRC D93558EE
Track not present in AccurateRip database
Copy OK

Track 4

Filename E:\Musik\Böhse Onkelz – Memento [FLAC]\04 – Böhse Onkelz – Jeder kriegt was er verdient.wav

Peak level 96.6 %
Extraction speed 1.6 X
Track quality 100.0 %
Test CRC F52231B9
Copy CRC F52231B9
Track not present in AccurateRip database
Copy OK

Track 5

Filename E:\Musik\Böhse Onkelz – Memento [FLAC]\05 – Böhse Onkelz – Mach’s dir selbst.wav

Peak level 96.7 %
Extraction speed 1.6 X
Track quality 100.0 %
Test CRC 83D10923
Copy CRC 83D10923
Track not present in AccurateRip database
Copy OK

Track 6

Filename E:\Musik\Böhse Onkelz – Memento [FLAC]\06 – Böhse Onkelz – Irgendwas für nichts.wav

Peak level 96.6 %
Extraction speed 1.6 X
Track quality 100.0 %
Test CRC 09F655C3
Copy CRC 09F655C3
Track not present in AccurateRip database
Copy OK

Track 7

Filename E:\Musik\Böhse Onkelz – Memento [FLAC]\07 – Böhse Onkelz – Wo auch immer wir stehen.wav

Peak level 96.0 %
Extraction speed 1.9 X
Track quality 100.0 %
Test CRC 4B2FEF3E
Copy CRC 4B2FEF3E
Track not present in AccurateRip database
Copy OK

Track 8

Filename E:\Musik\Böhse Onkelz – Memento [FLAC]\08 – Böhse Onkelz – Es ist sinnlos mit sich selbst zu spaßen.wav

Peak level 97.0 %
Extraction speed 1.9 X
Track quality 100.0 %
Test CRC 5410A498
Copy CRC 5410A498
Track not present in AccurateRip database
Copy OK

Track 9

Filename E:\Musik\Böhse Onkelz – Memento [FLAC]\09 – Böhse Onkelz – Der Junge mit dem Schwefelholz.wav

Peak level 96.5 %
Extraction speed 1.9 X
Track quality 99.9 %
Test CRC 38E68634
Copy CRC 38E68634
Track not present in AccurateRip database
Copy OK

Track 10

Filename E:\Musik\Böhse Onkelz – Memento [FLAC]\10 – Böhse Onkelz – Nach allen Regeln der Sucht.wav

Peak level 97.7 %
Extraction speed 2.2 X
Track quality 100.0 %
Test CRC 9090D196
Copy CRC 9090D196
Track not present in AccurateRip database
Copy OK

Track 11

Filename E:\Musik\Böhse Onkelz – Memento [FLAC]\11 – Böhse Onkelz – Auf die Freundschaft.wav

Peak level 95.0 %
Extraction speed 2.2 X
Track quality 100.0 %
Test CRC FB0E657B
Copy CRC FB0E657B
Track not present in AccurateRip database
Copy OK

Track 12

Filename E:\Musik\Böhse Onkelz – Memento [FLAC]\12 – Böhse Onkelz – 52 Wochen.wav

Peak level 96.9 %
Extraction speed 2.1 X
Track quality 100.0 %
Test CRC 716E8840
Copy CRC 716E8840
Track not present in AccurateRip database
Copy OK

None of the tracks are present in the AccurateRip database

No errors occurred

End of status report

—- CUETools DB Plugin V2.1.6

[CTDB TOCID: LXHn4mSARN2FQf_gwKQNOn6.icE-] found
Submit result: LXHn4mSARN2FQf_gwKQNOn6.icE- has been confirmed
Track | CTDB Status
1 | (2/2) Accurately ripped
2 | (2/2) Accurately ripped
3 | (2/2) Accurately ripped
4 | (2/2) Accurately ripped
5 | (2/2) Accurately ripped
6 | (2/2) Accurately ripped
7 | (2/2) Accurately ripped
8 | (2/2) Accurately ripped
9 | (2/2) Accurately ripped
10 | (2/2) Accurately ripped
11 | (2/2) Accurately ripped
12 | (2/2) Accurately ripped

==== Log checksum BD682DB3C909DBF3BE030F2FDE873F03CF2C0054102FEF1F997C2F3294B2108C ====

REM GENRE “Hard Rock”
REM DATE 2016
REM DISCID 9A0D4D0C
REM COMMENT “ExactAudioCopy v1.3”
PERFORMER “Böhse Onkelz”
TITLE ” Memento”
REM COMPOSER “”
FILE “01 – Böhse Onkelz – Gott hat ein Problem.wav” WAVE
TRACK 01 AUDIO
TITLE “Gott hat ein Problem”
PERFORMER “Böhse Onkelz”
REM COMPOSER “”
ISRC CHC711600006
FLAGS DCP
INDEX 01 00:00:00
FILE “02 – Böhse Onkelz – Frei.wav” WAVE
TRACK 02 AUDIO
TITLE “Frei”
PERFORMER “Böhse Onkelz”
REM COMPOSER “”
ISRC CHC711600005
FLAGS DCP
INDEX 01 00:00:00
FILE “03 – Böhse Onkelz – Markt und Moral.wav” WAVE
TRACK 03 AUDIO
TITLE “Markt und Moral”
PERFORMER “Böhse Onkelz”
REM COMPOSER “”
ISRC CHC711600010
FLAGS DCP
INDEX 01 00:00:00
FILE “04 – Böhse Onkelz – Jeder kriegt was er verdient.wav” WAVE
TRACK 04 AUDIO
TITLE “Jeder kriegt was er verdient”
PERFORMER “Böhse Onkelz”
REM COMPOSER “”
ISRC CHC711600008
FLAGS DCP
INDEX 01 00:00:00
FILE “05 – Böhse Onkelz – Mach’s dir selbst.wav” WAVE
TRACK 05 AUDIO
TITLE “Mach’s dir selbst”
PERFORMER “Böhse Onkelz”
REM COMPOSER “”
ISRC CHC711600009
FLAGS DCP
INDEX 01 00:00:00
FILE “06 – Böhse Onkelz – Irgendwas für nichts.wav” WAVE
TRACK 06 AUDIO
TITLE “Irgendwas für nichts”
PERFORMER “Böhse Onkelz”
REM COMPOSER “”
ISRC CHC711600007
FLAGS DCP
INDEX 01 00:00:00
FILE “07 – Böhse Onkelz – Wo auch immer wir stehen.wav” WAVE
TRACK 07 AUDIO
TITLE “Wo auch immer wir stehen”
PERFORMER “Böhse Onkelz”
REM COMPOSER “”
ISRC CHC711600012
FLAGS DCP
INDEX 01 00:00:00
FILE “08 – Böhse Onkelz – Es ist sinnlos mit sich selbst zu spaßen.wav” WAVE
TRACK 08 AUDIO
TITLE “Es ist sinnlos mit sich selbst zu spaßen”
PERFORMER “Böhse Onkelz”
REM COMPOSER “”
ISRC CHC711600004
FLAGS DCP
INDEX 01 00:00:00
FILE “09 – Böhse Onkelz – Der Junge mit dem Schwefelholz.wav” WAVE
TRACK 09 AUDIO
TITLE “Der Junge mit dem Schwefelholz”
PERFORMER “Böhse Onkelz”
REM COMPOSER “”
ISRC CHC711600004
FLAGS DCP
INDEX 01 00:00:00
FILE “10 – Böhse Onkelz – Nach allen Regeln der Sucht.wav” WAVE
TRACK 10 AUDIO
TITLE “Nach allen Regeln der Sucht”
PERFORMER “Böhse Onkelz”
REM COMPOSER “”
ISRC CHC711600011
FLAGS DCP
INDEX 01 00:00:00
FILE “11 – Böhse Onkelz – Auf die Freundschaft.wav” WAVE
TRACK 11 AUDIO
TITLE “Auf die Freundschaft”
PERFORMER “Böhse Onkelz”
REM COMPOSER “”
ISRC CHC711600002
FLAGS DCP
INDEX 01 00:00:00
FILE “12 – Böhse Onkelz – 52 Wochen.wav” WAVE
TRACK 12 AUDIO
TITLE “52 Wochen ”
PERFORMER “Böhse Onkelz”
REM COMPOSER “”
ISRC CHC711600001
FLAGS DCP
INDEX 01 00:00:00


Leave a Reply

Your email address will not be published. Required fields are marked *

This site uses Akismet to reduce spam. Learn how your comment data is processed.