Böhse Onkelz – Lügenmarsch




Artist: Böhse Onkelz
Year: 1989
Genre: Punk
Notes: Discogs
Add. Notes:
Cover incl.: Yes
Encoder: FLAC
Bitrate: ~1000 kBit/s (44.1 kHz/16 Bit/s)
Log & Cue incl.: Yes
Size: 215,85 MB
Password: “slam” (without ” “)


All Downloads/Hosters are compatible

Download 1
Turbobit.net
KatFile.com
Rapidgator.net
ddl.to
Download 2
Turbobit.net
KatFile.com
Rapidgator.net
ddl.to

Tracklist:

1 - Ein Guter Freund - 2:55
2 - Könige Für Einen Tag - 4:02
3 - Lügenmarsch - 3:41
4 - Freddy Krueger - 4:06
5 - Guten Tag - 4:28
6 - Tanz Der Teufel - 4:08
7 - Religion - 3:40

EAC-Log, CUE-Sheed & NFO:

Click to open spoiler
Exact Audio Copy V0.99 prebeta 4 from 23. January 2008

Отчёт EAC об извлечении, выполненном 8. мая 2008, 18:30

Boehse Onkelz / Luegenmarsch

Дисковод: Optiarc DVD RW AD-7170A Adapter: 0 ID: 0

Режим чтения : Достоверность
Использование точного потока : Да
Отключение кэша аудио : Да
Использование указателей C2 : Нет

Коррекция смещения при чтении : 48
Способность читать области Lead-in и Lead-out : Нет
Заполнение пропущенных сэмплов тишиной : Да
Удаление блоков с тишиной в начале и конце : Нет
При вычислениях CRC использовались нулевые сэмплы : Да
Интерфейс : Встроенный Win32-интерфейс для Win NT/2000

Выходной формат : Пользовательский кодировщик
Выбранный битрейт : 768 kBit/s
Качество : Высокий
Добавление ID3-тэга : Нет
Утилита сжатия : C:\Program Files\Exact Audio Copy\FLAC\FLAC.EXE
Дополнительные параметры : -6 -V -T “ARTIST=%a” -T “TITLE=%t” -T “ALBUM=%g” -T “DATE=%y” -T “TRACKNUMBER=%n” -T “GENRE=%m” -T “COMMENT=%e” %s -o %d

TOC извлечённого CD

Трек | Старт | Длительность | Начальный сектор | Конечный сектор
———————————————————————
1 | 0:00.32 | 3:00.58 | 32 | 13589
2 | 3:01.15 | 4:08.42 | 13590 | 32231
3 | 7:09.57 | 4:26.33 | 32232 | 52214
4 | 11:36.15 | 4:12.50 | 52215 | 71164
5 | 15:48.65 | 4:35.32 | 71165 | 91821
6 | 20:24.22 | 4:15.20 | 91822 | 110966
7 | 24:39.42 | 3:45.40 | 110967 | 127881

Характеристики диапазона извлечения и сообщения об ошибках

Выбранный диапазон

Имя файла D:\My torrents\Boehse Onkelz\BO_-_5_albums\Luegenmarsch (1989)\Boehse Onkelz – Luegenmarsch.wav

Пиковый уровень 100.0 %
Качество диапазона 100.0 %
CRC копии 44648070
Копирование… OK

Ошибок не произошло

AccurateRip: сводка

Трек 1 точность не определена (достоверность 1) [C4462A0E], AccurateRip вернул [2AD75B96]
Трек 2 точность не определена (достоверность 1) [702C904D], AccurateRip вернул [5142E9F7]
Трек 3 точность не определена (достоверность 1) [4733B35B], AccurateRip вернул [7287359D]
Трек 4 точность не определена (достоверность 1) [9A125C55], AccurateRip вернул [6FEDB06D]
Трек 5 точность не определена (достоверность 1) [F3DEB2CF], AccurateRip вернул [C9883E47]
Трек 6 точность не определена (достоверность 1) [6F18C452], AccurateRip вернул [692D503E]
Трек 7 точность не определена (достоверность 1) [BC8E8B5B], AccurateRip вернул [60F7837D]

Ни один трек не прошёл проверки на точность
В вашей базе может быть иной вариант штамповки диска

Конец отчёта

REM GENRE Rock
REM DATE 1989
REM DISCID 5406A907
REM COMMENT “ExactAudioCopy v0.99pb4”
PERFORMER “Boehse Onkelz”
TITLE “Luegenmarsch”
FILE “Boehse Onkelz – Luegenmarsch.flac” WAVE
TRACK 01 AUDIO
TITLE “Ein guter Freund”
PERFORMER “Boehse Onkelz”
INDEX 00 00:00:00
INDEX 01 00:00:32
TRACK 02 AUDIO
TITLE “Koenige fuer einen Tag”
PERFORMER “Boehse Onkelz”
INDEX 00 02:59:45
INDEX 01 03:01:15
TRACK 03 AUDIO
TITLE “Luegenmarsch”
PERFORMER “Boehse Onkelz”
INDEX 00 07:08:20
INDEX 01 07:09:57
TRACK 04 AUDIO
TITLE “Freddy Krueger”
PERFORMER “Boehse Onkelz”
INDEX 00 11:34:50
INDEX 01 11:36:15
TRACK 05 AUDIO
TITLE “Guten Tag”
PERFORMER “Boehse Onkelz”
INDEX 00 15:47:25
INDEX 01 15:48:65
TRACK 06 AUDIO
TITLE “Tanz der Teufel”
PERFORMER “Boehse Onkelz”
INDEX 00 20:22:57
INDEX 01 20:24:22
TRACK 07 AUDIO
TITLE “Religion”
PERFORMER “Boehse Onkelz”
INDEX 00 24:38:05
INDEX 01 24:39:42


Leave a Reply

Your email address will not be published. Required fields are marked *

Enter the text from the image below
 

This site uses Akismet to reduce spam. Learn how your comment data is processed.