Böhse Onkelz – Live in Vienna




Artist: Böhse Onkelz
Year: 1992
Genre: Oi
Notes: Discogs
Add. Notes:
Cover incl.: Yes
Encoder: FLAC
Bitrate: ~1000 kBit/s (44.1 kHz/16 Bit/s)
Log & Cue incl.: Yes
Size: 494,67 MB
Password: “slam” (without ” “)


All Downloads/Hosters are compatible

Download 1
Turbobit.net
KatFile.com
Rapidgator.net
ddl.to
Download 2
Turbobit.net
KatFile.com
Rapidgator.net
ddl.to

Tracklist:

1 - Intro - 0:20
2 - Wir Ham' Noch Lange Nicht Genug - 4:48
3 - 10 Jahre - 4:07
4 - Kneipenterroristen - 3:04
5 - Signum Des Verrats - 3:22
6 - Wilde Jungs - 4:40
7 - Das Ist Mein Leben - 4:18
8 - Nie Wieder - 4:31
9 - Zieh' Mit Den Wölfen - 4:03
10 - Lack Und Leder - 4:23
11 - Mexico - 3:19
12 - Wieder Mal 'nen Tag Verschenkt - 4:26
13 - Stöckel Und Strapse - 2:34
14 - Nur Die Besten Sterben Jung - 4:37
15 - Zeig Mir Den Weg - 3:48
16 - So Sind Wir - 3:57
17 - Ach, Sie Suchen Streit - 3:18
18 - Eine Dieser Nächte - 4:48
19 - Ich Lieb' Mich - 1:42

EAC-Log, CUE-Sheed & NFO:

Click to open spoiler
Exact Audio Copy V0.99 prebeta 4 from 23. January 2008

Отчёт EAC об извлечении, выполненном 20. декабря 2008, 22:47

Boehse Onkelz / Live in Vienna

Дисковод: Optiarc DVD RW AD-7170A Adapter: 0 ID: 0

Режим чтения : Достоверность
Использование точного потока : Да
Отключение кэша аудио : Да
Использование указателей C2 : Нет

Коррекция смещения при чтении : 48
Способность читать области Lead-in и Lead-out : Нет
Заполнение пропущенных сэмплов тишиной : Да
Удаление блоков с тишиной в начале и конце : Нет
При вычислениях CRC использовались нулевые сэмплы : Да
Интерфейс : Встроенный Win32-интерфейс для Win NT/2000

Выходной формат : Пользовательский кодировщик
Выбранный битрейт : 1024 kBit/s
Качество : Высокий
Добавление ID3-тэга : Да
Утилита сжатия : C:\Program Files\Exact Audio Copy\FLAC\FLAC.EXE
Дополнительные параметры : -6 -V -T “ARTIST=%a” -T “TITLE=%t” -T “ALBUM=%g” -T “DATE=%y” -T “TRACKNUMBER=%n” -T “GENRE=%m” -T “COMMENT=%e” %s -o %d

TOC извлечённого CD

Трек | Старт | Длительность | Начальный сектор | Конечный сектор
———————————————————————
1 | 0:00.00 | 0:19.52 | 0 | 1476
2 | 0:19.52 | 4:48.08 | 1477 | 23084
3 | 5:07.60 | 4:06.67 | 23085 | 41601
4 | 9:14.52 | 3:04.20 | 41602 | 55421
5 | 12:18.72 | 3:22.43 | 55422 | 70614
6 | 15:41.40 | 4:40.30 | 70615 | 91644
7 | 20:21.70 | 4:18.02 | 91645 | 110996
8 | 24:39.72 | 4:31.45 | 110997 | 131366
9 | 29:11.42 | 4:03.53 | 131367 | 149644
10 | 33:15.20 | 4:22.72 | 149645 | 169366
11 | 37:38.17 | 3:19.60 | 169367 | 184351
12 | 40:58.02 | 4:25.65 | 184352 | 204291
13 | 45:23.67 | 2:34.13 | 204292 | 215854
14 | 47:58.05 | 4:37.00 | 215855 | 236629
15 | 52:35.05 | 3:48.22 | 236630 | 253751
16 | 56:23.27 | 3:57.25 | 253752 | 271551
17 | 60:20.52 | 3:17.70 | 271552 | 286396
18 | 63:38.47 | 4:48.25 | 286397 | 308021
19 | 68:26.72 | 1:42.35 | 308022 | 315706

Характеристики диапазона извлечения и сообщения об ошибках

Выбранный диапазон

Имя файла E:\BO\1992-Live In Vienna\Boehse Onkelz – Live in Vienna.wav

Пиковый уровень 99.2 %
Качество диапазона 100.0 %
CRC копии 595E8AB0
Копирование… OK

Ошибок не произошло

Конец отчёта

REM GENRE “Hard Rock”
REM DATE 1992
REM DISCID FE107113
REM COMMENT “ExactAudioCopy v0.99pb4”
PERFORMER “Boehse Onkelz”
TITLE “Live in Vienna”
FILE “Boehse Onkelz – Live in Vienna.flac” WAVE
TRACK 01 AUDIO
TITLE “Intro”
PERFORMER “Boehse Onkelz”
INDEX 01 00:00:00
TRACK 02 AUDIO
TITLE “Wir ham noch lange nicht genug”
PERFORMER “Boehse Onkelz”
INDEX 01 00:19:52
TRACK 03 AUDIO
TITLE “10 Jahre”
PERFORMER “Boehse Onkelz”
INDEX 01 05:07:60
TRACK 04 AUDIO
TITLE “Kneipenterroristen”
PERFORMER “Boehse Onkelz”
INDEX 01 09:14:52
TRACK 05 AUDIO
TITLE “Signum des Verrats”
PERFORMER “Boehse Onkelz”
INDEX 01 12:18:72
TRACK 06 AUDIO
TITLE “Wilde Jungs”
PERFORMER “Boehse Onkelz”
INDEX 01 15:41:40
TRACK 07 AUDIO
TITLE “Das ist mein Leben”
PERFORMER “Boehse Onkelz”
INDEX 01 20:21:70
TRACK 08 AUDIO
TITLE “Nie wieder”
PERFORMER “Boehse Onkelz”
INDEX 01 24:39:72
TRACK 09 AUDIO
TITLE “Zieh mit den Woelfen”
PERFORMER “Boehse Onkelz”
INDEX 01 29:11:42
TRACK 10 AUDIO
TITLE “Lack und Leder”
PERFORMER “Boehse Onkelz”
INDEX 01 33:15:20
TRACK 11 AUDIO
TITLE “Mexico”
PERFORMER “Boehse Onkelz”
INDEX 01 37:38:17
TRACK 12 AUDIO
TITLE “Wieder mal nen Tag verschenkt”
PERFORMER “Boehse Onkelz”
INDEX 01 40:58:02
TRACK 13 AUDIO
TITLE “Stoeckel und Strapse”
PERFORMER “Boehse Onkelz”
INDEX 01 45:23:67
TRACK 14 AUDIO
TITLE “Nur die Besten sterben jung”
PERFORMER “Boehse Onkelz”
INDEX 01 47:58:05
TRACK 15 AUDIO
TITLE “Zeig mir den Weg”
PERFORMER “Boehse Onkelz”
INDEX 01 52:35:05
TRACK 16 AUDIO
TITLE “So sind wir”
PERFORMER “Boehse Onkelz”
INDEX 01 56:23:27
TRACK 17 AUDIO
TITLE “Ach, Sie suchen Streit”
PERFORMER “Boehse Onkelz”
INDEX 01 60:20:52
TRACK 18 AUDIO
TITLE “Eine dieser Naechte”
PERFORMER “Boehse Onkelz”
INDEX 01 63:38:47
TRACK 19 AUDIO
TITLE “Ich lieb’ mich”
PERFORMER “Boehse Onkelz”
INDEX 01 68:26:72


Leave a Reply

Your email address will not be published. Required fields are marked *

This site uses Akismet to reduce spam. Learn how your comment data is processed.