Böhse Onkelz – Live In Dortmund




Artist: Böhse Onkelz
Year: 1997
Genre: Oi
Notes: Discogs
Add. Notes:
Cover incl.: Yes
Encoder: FLAC
Bitrate: ~1000 kBit/s (44.1 kHz/16 Bit/s)
Log & Cue incl.: Yes
Size: 891,66 MB
Password: “slam” (without ” “)


All Downloads/Hosters are compatible

Download 1
Turbobit.net
KatFile.com
Rapidgator.net
ddl.to
Download 2
Turbobit.net
KatFile.com
Rapidgator.net
ddl.to

Tracklist:

1-1 - Intro - 3:05
1-2 - Hier Sind Die Onkelz - 4:32
1-3 - Lieber Stehend Sterben - 3:39
1-4 - Finde Die Wahrheit - 4:02
1-5 - Danke Für Nichts - 3:39
1-6 - Danket Dem Herrn - 3:52
1-7 - Nichts Ist Für Die Ewigkeit - 5:20
1-8 - Kneipenterroristen - 2:52
1-9 - Lasst Es Uns Tun - 3:07
1-10 - Nichts Ist So Hart Wie Das Leben - 3:28
1-11 - Heilige Lieder - 4:10
1-12 - Wieder Mal 'Nen Tag Verschenkt - 4:19
1-13 - Gehasst, Verdammt, Vergöttert - 3:03
1-14 - Wer Nichts Wagt, Kann Nichts Verlieren - 3:47
1-15 - Nur Die Besten Sterben Jung - 3:56

2-1 - Ach Sie Suchen Streit - 3:39
2-2 - Du Sollst Den Tag Nicht Vor Dem Abend Loben - 
3:29
2-3 - So Sind Wir - 3:45
2-4 - Ich Bin In Dir - 4:01
2-5 - Könige Für Einen Tag - 3:05
2-6 - Nekrophil - 4:31
2-7 - Scheißegal - 2:28
2-8 - Dick Und Durstig - 2:18
2-9 - Oratorium / Wir Ham' Noch Lange Nicht Genug - 
4:39
2-10 - Auf Gute Freunde - 4:55
2-11 - Mexico - 2:54
2-12 - Erinnerung - 5:38

EAC-Log, CUE-Sheed & NFO:

Click to open spoiler
Exact Audio Copy V0.99 prebeta 4 from 23. January 2008

????? EAC ?? ??????????, ??????????? 16. ???? 2008, 20:35

Boehse Onkelz / Live in Dortmund – CD 1

????????: Optiarc DVD RW AD-7170A Adapter: 0 ID: 0

????? ?????? : ?????????????
????????????? ??????? ?????? : ??
?????????? ???? ????? : ??
????????????? ?????????? C2 : ???

????????? ???????? ??? ?????? : 48
??????????? ?????? ??????? Lead-in ? Lead-out : ???
?????????? ??????????? ??????? ??????? : ??
???????? ?????? ? ??????? ? ?????? ? ????? : ???
??? ??????????? CRC ?????????????? ??????? ?????? : ??
????????? : ?????????? Win32-????????? ??? Win NT/2000

???????? ?????? : ???????????????? ??????????
????????? ??????? : 768 kBit/s
???????? : ???????
?????????? ID3-???? : ???
??????? ?????? : C:\Program Files\Exact Audio Copy\FLAC\FLAC.EXE
?????????????? ????????? : -6 -V -T “ARTIST=%a” -T “TITLE=%t” -T “ALBUM=%g” -T “DATE=%y” -T “TRACKNUMBER=%n” -T “GENRE=%m” -T “COMMENT=%e” %s -o %d

TOC ???????????? CD

???? | ????? | ???????????? | ????????? ?????? | ???????? ??????
———————————————————————
1 | 0:00.32 | 3:06.38 | 32 | 14019
2 | 3:06.70 | 4:56.32 | 14020 | 36251
3 | 8:03.27 | 4:03.58 | 36252 | 54534
4 | 12:07.10 | 4:42.52 | 54535 | 75736
5 | 16:49.62 | 4:06.50 | 75737 | 94236
6 | 20:56.37 | 5:07.20 | 94237 | 117281
7 | 26:03.57 | 7:24.63 | 117282 | 150644
8 | 33:28.45 | 3:04.12 | 150645 | 164456
9 | 36:32.57 | 3:19.65 | 164457 | 179446
10 | 39:52.47 | 4:23.15 | 179447 | 199186
11 | 44:15.62 | 4:45.13 | 199187 | 220574
12 | 49:01.00 | 5:32.05 | 220575 | 245479
13 | 54:33.05 | 3:47.70 | 245480 | 262574
14 | 58:21.00 | 4:39.62 | 262575 | 283561
15 | 63:00.62 | 3:55.70 | 283562 | 301256

?????????????? ????????? ?????????? ? ????????? ?? ???????

????????? ????????

??? ????? D:\My torrents\Boehse_Onkelz_lossless\1997-Live in Dortmund CD1\Boehse Onkelz – Live in Dortmund – CD 1.wav

??????? ??????? 100.0 %
???????? ????????? 100.0 %
CRC ????? 01DB576F
???????????… OK

?????? ?? ?????????

AccurateRip: ??????

???? 1 ?????? ?????????? (??????? 8) [E676BFBA]
???? 2 ?????? ?????????? (??????? 8) [F0BBA263]
???? 3 ?????? ?????????? (??????? 8) [CC2AEF52]
???? 4 ?????? ?????????? (??????? 8) [130A4068]
???? 5 ?????? ?????????? (??????? 8) [AB407634]
???? 6 ?????? ?????????? (??????? 8) [5AA92FD1]
???? 7 ?????? ?????????? (??????? 8) [018BD67A]
???? 8 ?????? ?????????? (??????? 8) [66E5DC83]
???? 9 ?????? ?????????? (??????? 8) [2BBD7178]
???? 10 ?????? ?????????? (??????? 8) [E56E6A5F]
???? 11 ?????? ?????????? (??????? 8) [B5E542ED]
???? 12 ?????? ?????????? (??????? 8) [EEE64F52]
???? 13 ?????? ?????????? (??????? 8) [4161AE12]
???? 14 ?????? ?????????? (??????? 8) [E8F42810]
???? 15 ?????? ?????????? (??????? 8) [ADAFE3AC]

??? ????? ????????? ?????

????? ??????

REM GENRE Rock
REM DATE 1997
REM DISCID A00CE40C
REM COMMENT “ExactAudioCopy v0.99pb4”
PERFORMER “Boehse Onkelz”
TITLE “Live In Dortmund CD 2”
FILE “Böhse Onkelz – Live In Dortmund CD 2.flac” WAVE
TRACK 01 AUDIO
TITLE “Ach Sie Suchen Streit”
PERFORMER “Boehse Onkelz”
INDEX 00 00:00:00
INDEX 01 00:00:32
TRACK 02 AUDIO
TITLE “Ihr Sollt Den Tag Nicht Vor Dem Abend Loben”
PERFORMER “Boehse Onkelz”
INDEX 00 03:40:37
INDEX 01 04:15:50
TRACK 03 AUDIO
TITLE “So Sind Wir”
PERFORMER “Boehse Onkelz”
INDEX 00 07:45:22
INDEX 01 09:18:67
TRACK 04 AUDIO
TITLE “Ich Bin In Dir”
PERFORMER “Boehse Onkelz”
INDEX 00 13:03:40
INDEX 01 14:15:25
TRACK 05 AUDIO
TITLE “Könige Für Einen Tag”
PERFORMER “Boehse Onkelz”
INDEX 00 18:16:37
INDEX 01 18:45:05
TRACK 06 AUDIO
TITLE “Nekrophil”
PERFORMER “Boehse Onkelz”
INDEX 00 21:50:60
INDEX 01 22:00:07
TRACK 07 AUDIO
TITLE “Scheissegal”
PERFORMER “Boehse Onkelz”
INDEX 01 26:32:02
TRACK 08 AUDIO
TITLE “Dick Und Durstig”
PERFORMER “Boehse Onkelz”
INDEX 00 29:00:05
INDEX 01 29:18:37
TRACK 09 AUDIO
TITLE “Oratorium / Wir Ham’ Noch Lange Nicht Genug”
PERFORMER “Boehse Onkelz”
INDEX 00 31:36:35
INDEX 01 34:09:70
TRACK 10 AUDIO
TITLE “Auf Gute Freunde”
PERFORMER “Boehse Onkelz”
INDEX 00 38:48:70
INDEX 01 39:05:15
TRACK 11 AUDIO
TITLE “Mexico”
PERFORMER “Boehse Onkelz”
INDEX 00 44:01:15
INDEX 01 44:29:70
TRACK 12 AUDIO
TITLE “Erinnerung”
PERFORMER “Boehse Onkelz”
INDEX 00 47:23:40
INDEX 01 49:22:42

Exact Audio Copy V0.99 prebeta 4 from 23. January 2008

????? EAC ?? ??????????, ??????????? 16. ???? 2008, 20:49

Boehse Onkelz / Live In Dortmund CD 2

????????: Optiarc DVD RW AD-7170A Adapter: 0 ID: 0

????? ?????? : ?????????????
????????????? ??????? ?????? : ??
?????????? ???? ????? : ??
????????????? ?????????? C2 : ???

????????? ???????? ??? ?????? : 48
??????????? ?????? ??????? Lead-in ? Lead-out : ???
?????????? ??????????? ??????? ??????? : ??
???????? ?????? ? ??????? ? ?????? ? ????? : ???
??? ??????????? CRC ?????????????? ??????? ?????? : ??
????????? : ?????????? Win32-????????? ??? Win NT/2000

???????? ?????? : ???????????????? ??????????
????????? ??????? : 768 kBit/s
???????? : ???????
?????????? ID3-???? : ???
??????? ?????? : C:\Program Files\Exact Audio Copy\FLAC\FLAC.EXE
?????????????? ????????? : -6 -V -T “ARTIST=%a” -T “TITLE=%t” -T “ALBUM=%g” -T “DATE=%y” -T “TRACKNUMBER=%n” -T “GENRE=%m” -T “COMMENT=%e” %s -o %d

TOC ???????????? CD

???? | ????? | ???????????? | ????????? ?????? | ???????? ??????
———————————————————————
1 | 0:00.32 | 4:15.18 | 32 | 19174
2 | 4:15.50 | 5:03.17 | 19175 | 41916
3 | 9:18.67 | 4:56.33 | 41917 | 64149
4 | 14:15.25 | 4:29.55 | 64150 | 84379
5 | 18:45.05 | 3:15.02 | 84380 | 99006
6 | 22:00.07 | 4:31.70 | 99007 | 119401
7 | 26:32.02 | 2:46.35 | 119402 | 131886
8 | 29:18.37 | 4:51.33 | 131887 | 153744
9 | 34:09.70 | 4:55.20 | 153745 | 175889
10 | 39:05.15 | 5:24.55 | 175890 | 200244
11 | 44:29.70 | 4:52.47 | 200245 | 222191
12 | 49:22.42 | 5:37.65 | 222192 | 247531

?????????????? ????????? ?????????? ? ????????? ?? ???????

????????? ????????

??? ????? D:\My torrents\Boehse_Onkelz_lossless\1997-Live in Dortmund CD2\Boehse Onkelz – Live In Dortmund CD 2.wav

??????? ??????? 99.1 %
???????? ????????? 99.9 %
CRC ????? F4B200D2
???????????… OK

?????? ?? ?????????

AccurateRip: ??????

???? 1 ?????? ?????????? (??????? 9) [F1EB2131]
???? 2 ?????? ?????????? (??????? 8) [7A28BE87]
???? 3 ?????? ?????????? (??????? 9) [14F34796]
???? 4 ?????? ?????????? (??????? 9) [4F95F604]
???? 5 ?????? ?????????? (??????? 9) [849054AE]
???? 6 ?????? ?????????? (??????? 9) [6381300D]
???? 7 ?????? ?????????? (??????? 9) [A45634EB]
???? 8 ?????? ?????????? (??????? 8) [447D47FC]
???? 9 ?????? ?????????? (??????? 9) [00DEAA07]
???? 10 ?????? ?????????? (??????? 8) [A1FF4356]
???? 11 ?????? ?????????? (??????? 8) [D8746E6F]
???? 12 ?????? ?????????? (??????? 8) [60BEC20D]

??? ????? ????????? ?????

????? ??????

REM GENRE Rock
REM DATE 1997
REM DISCID D50FB00F
REM COMMENT “ExactAudioCopy v0.99pb4”
PERFORMER “Boehse Onkelz”
TITLE “Live in Dortmund – CD 1”
FILE “Boehse Onkelz – Live in Dortmund – CD 1.flac” WAVE
TRACK 01 AUDIO
TITLE “Intro”
PERFORMER “Boehse Onkelz”
INDEX 00 00:00:00
INDEX 01 00:00:32
TRACK 02 AUDIO
TITLE “Hier sind die Onkelz”
PERFORMER “Boehse Onkelz”
INDEX 01 03:06:70
TRACK 03 AUDIO
TITLE “Lieber stehend sterben”
PERFORMER “Boehse Onkelz”
INDEX 00 07:38:50
INDEX 01 08:03:27
TRACK 04 AUDIO
TITLE “Finde die Wahrheit”
PERFORMER “Boehse Onkelz”
INDEX 00 11:43:15
INDEX 01 12:07:10
TRACK 05 AUDIO
TITLE “Danke für nichts”
PERFORMER “Boehse Onkelz”
INDEX 00 16:10:15
INDEX 01 16:49:62
TRACK 06 AUDIO
TITLE “Danket dem Herrn”
PERFORMER “Boehse Onkelz”
INDEX 00 20:29:07
INDEX 01 20:56:37
TRACK 07 AUDIO
TITLE “Nichts ist für die Ewigkeit”
PERFORMER “Boehse Onkelz”
INDEX 00 24:48:57
INDEX 01 26:03:57
TRACK 08 AUDIO
TITLE “Kneipenterroristen”
PERFORMER “Boehse Onkelz”
INDEX 00 31:23:67
INDEX 01 33:28:45
TRACK 09 AUDIO
TITLE “Lasst es uns tun”
PERFORMER “Boehse Onkelz”
INDEX 00 36:20:37
INDEX 01 36:32:57
TRACK 10 AUDIO
TITLE “Nichts ist so hart wie das Leben”
PERFORMER “Boehse Onkelz”
INDEX 00 39:39:62
INDEX 01 39:52:47
TRACK 11 AUDIO
TITLE “Heilige Lieder”
PERFORMER “Boehse Onkelz”
INDEX 00 43:20:70
INDEX 01 44:15:62
TRACK 12 AUDIO
TITLE “Wieder mal ‘nen Tag verschenkt”
PERFORMER “Boehse Onkelz”
INDEX 00 48:26:30
INDEX 01 49:01:00
TRACK 13 AUDIO
TITLE “Gehasst, Verdammt, Vergöttert”
PERFORMER “Boehse Onkelz”
INDEX 00 53:20:27
INDEX 01 54:33:05
TRACK 14 AUDIO
TITLE “Wer nichts wagt, kann nichts verlieren”
PERFORMER “Boehse Onkelz”
INDEX 00 57:36:40
INDEX 01 58:21:00
TRACK 15 AUDIO
TITLE “Nur die Besten sterben jung”
PERFORMER “Boehse Onkelz”
INDEX 00 62:07:62
INDEX 01 63:00:62


Leave a Reply

Your email address will not be published. Required fields are marked *

This site uses Akismet to reduce spam. Learn how your comment data is processed.