Böhse Onkelz – Kneipenterroristen




Artist: Böhse Onkelz
Year: 1988
Genre: Rock
Notes: Discogs
Add. Notes:
Cover incl.: Yes
Encoder: FLAC
Bitrate: ~1000 kBit/s (44.1 kHz/16 Bit/s)
Log & Cue incl.: Yes
Size: 298,73 MB
Password: “slam” (without ” “)


All Downloads/Hosters are compatible

Download 1
Turbobit.net
KatFile.com
Rapidgator.net
ddl.to
Download 2
Turbobit.net
KatFile.com
Rapidgator.net
ddl.to

Tracklist:

1. Kneipenterroristen
2. Religion
3. Lack und Leder
4. So sind wir
5. Tanz der Teufel
6. 28
7. Guten Tag
8. Nie wieder
9. Freddy Krüger
10. Ein guter Freund

EAC-Log, CUE-Sheed & NFO:

Click to open spoiler
Exact Audio Copy V0.99 prebeta 4 from 23. January 2008

Отчёт EAC об извлечении, выполненном 8. мая 2008, 18:21

Boehse Onkelz / Kneipenterroristen

Дисковод: Optiarc DVD RW AD-7170A Adapter: 0 ID: 0

Режим чтения : Достоверность
Использование точного потока : Да
Отключение кэша аудио : Да
Использование указателей C2 : Нет

Коррекция смещения при чтении : 48
Способность читать области Lead-in и Lead-out : Нет
Заполнение пропущенных сэмплов тишиной : Да
Удаление блоков с тишиной в начале и конце : Нет
При вычислениях CRC использовались нулевые сэмплы : Да
Интерфейс : Встроенный Win32-интерфейс для Win NT/2000

Выходной формат : Пользовательский кодировщик
Выбранный битрейт : 768 kBit/s
Качество : Высокий
Добавление ID3-тэга : Нет
Утилита сжатия : C:\Program Files\Exact Audio Copy\FLAC\FLAC.EXE
Дополнительные параметры : -6 -V -T “ARTIST=%a” -T “TITLE=%t” -T “ALBUM=%g” -T “DATE=%y” -T “TRACKNUMBER=%n” -T “GENRE=%m” -T “COMMENT=%e” %s -o %d

TOC извлечённого CD

Трек | Старт | Длительность | Начальный сектор | Конечный сектор
———————————————————————
1 | 0:00.32 | 3:46.03 | 32 | 16984
2 | 3:46.35 | 3:44.02 | 16985 | 33786
3 | 7:30.37 | 4:12.65 | 33787 | 52751
4 | 11:43.27 | 3:45.23 | 52752 | 69649
5 | 15:28.50 | 4:11.27 | 69650 | 88501
6 | 19:40.02 | 4:27.00 | 88502 | 108526
7 | 24:07.02 | 4:31.05 | 108527 | 128856
8 | 28:38.07 | 4:16.25 | 128857 | 148081
9 | 32:54.32 | 4:09.03 | 148082 | 166759
10 | 37:03.35 | 2:42.10 | 166760 | 178919

Характеристики диапазона извлечения и сообщения об ошибках

Выбранный диапазон

Имя файла D:\My torrents\Boehse Onkelz\BO_-_5_albums\Kneipenterroristen (1988)\Boehse Onkelz – Kneipenterroristen.wav

Пиковый уровень 100.0 %
Качество диапазона 100.0 %
CRC копии 35782E08
Копирование… OK

Ошибок не произошло

AccurateRip: сводка

Трек 1 точное извлечение (доверие 1) [706418FD]
Трек 2 точное извлечение (доверие 1) [EF57B0C8]
Трек 3 точное извлечение (доверие 1) [460B30CB]
Трек 4 точное извлечение (доверие 1) [3EC6BBD7]
Трек 5 точное извлечение (доверие 1) [A00C91BB]
Трек 6 точное извлечение (доверие 1) [30490CE3]
Трек 7 точное извлечение (доверие 1) [600F9AD4]
Трек 8 точное извлечение (доверие 1) [A3470FA1]
Трек 9 точное извлечение (доверие 1) [DF18A35F]
Трек 10 нет в базе данных

9 трек(и) скопированы точно
1 трек(и) не содержатся в базе AccurateRip

Некоторые треки не прошли проверку на точность

Конец отчёта

REM GENRE “Punk Rock”
REM DATE 1988
REM DISCID 7B09510A
REM COMMENT “ExactAudioCopy v0.99pb4”
PERFORMER “Boehse Onkelz”
TITLE “Kneipenterroristen”
FILE “Boehse Onkelz – Kneipenterroristen.flac” WAVE
TRACK 01 AUDIO
TITLE “Kneipenterroristen”
PERFORMER “Boehse Onkelz”
INDEX 00 00:00:00
INDEX 01 00:00:32
TRACK 02 AUDIO
TITLE “Religion”
PERFORMER “Boehse Onkelz”
INDEX 00 03:44:40
INDEX 01 03:46:35
TRACK 03 AUDIO
TITLE “Lack & Leder”
PERFORMER “Boehse Onkelz”
INDEX 00 07:28:45
INDEX 01 07:30:37
TRACK 04 AUDIO
TITLE “So sind wir”
PERFORMER “Boehse Onkelz”
INDEX 00 11:41:27
INDEX 01 11:43:27
TRACK 05 AUDIO
TITLE “Tanz der Teufel”
PERFORMER “Boehse Onkelz”
INDEX 00 15:26:50
INDEX 01 15:28:50
TRACK 06 AUDIO
TITLE “28”
PERFORMER “Boehse Onkelz”
INDEX 00 19:38:07
INDEX 01 19:40:02
TRACK 07 AUDIO
TITLE “Guten Tag”
PERFORMER “Boehse Onkelz”
INDEX 00 24:05:07
INDEX 01 24:07:02
TRACK 08 AUDIO
TITLE “Nie wieder”
PERFORMER “Boehse Onkelz”
INDEX 00 28:36:02
INDEX 01 28:38:07
TRACK 09 AUDIO
TITLE “Freddy Krueger”
PERFORMER “Boehse Onkelz”
INDEX 00 32:52:27
INDEX 01 32:54:32
TRACK 10 AUDIO
TITLE “Ein guter Freund”
PERFORMER “Boehse Onkelz”
INDEX 00 37:01:35
INDEX 01 37:03:35


Leave a Reply

Your email address will not be published. Required fields are marked *

Enter the text from the image below
 

This site uses Akismet to reduce spam. Learn how your comment data is processed.