Böhse Onkelz – Hier sind die Onkelz




No Cover available

Artist: Böhse Onkelz
Year: 1995
Genre: Rock
Notes: Discogs
Add. Notes:
Watch Songs on: YouTube
Cover incl.: Yes
Encoder: FLAC
Bitrate: ~1100 kBit/s (44.1 kHz/16 Bit/s)
Log & Cue incl.: Yes/Yes
Size: 383,8 MB
Password: “slam” (without ” “)


All Downloads/Hosters are compatible

Download 1
KatFile.com
Turbobit.net
FileFactory.com
Rapidgator.net
Download 2
KatFile.com
Turbobit.net
FileFactory.com
Rapidgator.net

Tracklist:

1 Hier Sind Die Onkelz 4:37
2 Finde Die Wahrheit 4:03
3 Danke Für Nichts 3:39
4 Ich 3:49
5 Nichts Ist Für Immer Da 5:27
6 Wer Nichts Wagt, Kann Nichts Verlieren 3:42
7 Ich Mache, Was Ich Will 5:53
8 Du Kannst Alles Haben 3:46
9 Viel Zu Jung 3:58
10 Das Problem Bist Du 3:51
11 Laßt Es Uns Tun 3:15
12 H 3:00

EAC-Log, CUE-Sheed & NFO:

Click to open spoiler
Exact Audio Copy V0.99 prebeta 4 from 23. January 2008

????? EAC ?? ??????????, ??????????? 8. ??? 2008, 18:58

Boehse Onkelz / Hier sind die Onkelz

????????: Optiarc DVD RW AD-7170A Adapter: 0 ID: 0

????? ?????? : ?????????????
????????????? ??????? ?????? : ??
?????????? ???? ????? : ??
????????????? ?????????? C2 : ???

????????? ???????? ??? ?????? : 48
??????????? ?????? ??????? Lead-in ? Lead-out : ???
?????????? ??????????? ??????? ??????? : ??
???????? ?????? ? ??????? ? ?????? ? ????? : ???
??? ??????????? CRC ?????????????? ??????? ?????? : ??
????????? : ?????????? Win32-????????? ??? Win NT/2000

???????? ?????? : ???????????????? ??????????
????????? ??????? : 768 kBit/s
???????? : ???????
?????????? ID3-???? : ???
??????? ?????? : C:\Program Files\Exact Audio Copy\FLAC\FLAC.EXE
?????????????? ????????? : -6 -V -T “ARTIST=%a” -T “TITLE=%t” -T “ALBUM=%g” -T “DATE=%y” -T “TRACKNUMBER=%n” -T “GENRE=%m” -T “COMMENT=%e” %s -o %d

TOC ???????????? CD

???? | ????? | ???????????? | ????????? ?????? | ???????? ??????
———————————————————————
1 | 0:00.32 | 4:38.50 | 32 | 20931
2 | 4:39.07 | 4:04.65 | 20932 | 39296
3 | 8:43.72 | 3:40.05 | 39297 | 55801
4 | 12:24.02 | 3:50.45 | 55802 | 73096
5 | 16:14.47 | 5:29.38 | 73097 | 97809
6 | 21:44.10 | 3:43.30 | 97810 | 114564
7 | 25:27.40 | 5:53.42 | 114565 | 141081
8 | 31:21.07 | 3:47.48 | 141082 | 158154
9 | 35:08.55 | 3:59.65 | 158155 | 176144
10 | 39:08.45 | 3:52.62 | 176145 | 193606
11 | 43:01.32 | 3:17.38 | 193607 | 208419
12 | 46:18.70 | 3:00.50 | 208420 | 221969

?????????????? ????????? ?????????? ? ????????? ?? ???????

????????? ????????

??? ????? D:\My torrents\Boehse Onkelz\BO_-_5_albums\Hier sind die Onkelz (1995)\Boehse Onkelz – Hier sind die Onkelz.wav

??????? ??????? 99.3 %
???????? ????????? 100.0 %
CRC ????? 6AAFFE0A
???????????… OK

?????? ?? ?????????

AccurateRip: ??????

???? 1 ?????? ?????????? (??????? 3) [5189827E]
???? 2 ?????? ?????????? (??????? 3) [E1E64453]
???? 3 ?????? ?????????? (??????? 3) [B01F763E]
???? 4 ?????? ?????????? (??????? 3) [03599070]
???? 5 ?????? ?????????? (??????? 3) [FA41AF62]
???? 6 ?????? ?????????? (??????? 3) [3EF46BD5]
???? 7 ?????? ?????????? (??????? 3) [344E5CD3]
???? 8 ?????? ?????????? (??????? 3) [011821AE]
???? 9 ?????? ?????????? (??????? 3) [D7026E1E]
???? 10 ?????? ?????????? (??????? 3) [997528C2]
???? 11 ?????? ?????????? (??????? 3) [5CF636CD]
???? 12 ?????? ?????????? (??????? 3) [53EC6AEE]

??? ????? ????????? ?????

????? ??????

REM GENRE Rock
REM DATE 1995
REM DISCID A00B8F0C
REM COMMENT “ExactAudioCopy v0.99pb4”
PERFORMER “Boehse Onkelz”
TITLE “Hier sind die Onkelz”
FILE “Boehse Onkelz – Hier sind die Onkelz.flac” WAVE
TRACK 01 AUDIO
TITLE “Hier sind die Onkelz”
PERFORMER “Boehse Onkelz”
INDEX 00 00:00:00
INDEX 01 00:00:32
TRACK 02 AUDIO
TITLE “Finde die Wahrheit”
PERFORMER “Boehse Onkelz”
INDEX 00 04:38:07
INDEX 01 04:39:07
TRACK 03 AUDIO
TITLE “Danke fuer nichts”
PERFORMER “Boehse Onkelz”
INDEX 00 08:42:65
INDEX 01 08:43:72
TRACK 04 AUDIO
TITLE “Ich”
PERFORMER “Boehse Onkelz”
INDEX 00 12:23:52
INDEX 01 12:24:02
TRACK 05 AUDIO
TITLE “Nichts ist für immer da”
PERFORMER “Boehse Onkelz”
INDEX 00 16:13:17
INDEX 01 16:14:47
TRACK 06 AUDIO
TITLE “Wer nichts wagt, kann nichts verlieren”
PERFORMER “Boehse Onkelz”
INDEX 00 21:42:55
INDEX 01 21:44:10
TRACK 07 AUDIO
TITLE “Ich mache, was ich will”
PERFORMER “Boehse Onkelz”
INDEX 00 25:26:45
INDEX 01 25:27:40
TRACK 08 AUDIO
TITLE “Du kannst alles haben”
PERFORMER “Boehse Onkelz”
INDEX 00 31:19:57
INDEX 01 31:21:07
TRACK 09 AUDIO
TITLE “Viel zu jung”
PERFORMER “Boehse Onkelz”
INDEX 00 35:07:40
INDEX 01 35:08:55
TRACK 10 AUDIO
TITLE “Das Problem bist du”
PERFORMER “Boehse Onkelz”
INDEX 00 39:07:52
INDEX 01 39:08:45
TRACK 11 AUDIO
TITLE “Lasst es uns tun”
PERFORMER “Boehse Onkelz”
INDEX 00 43:00:60
INDEX 01 43:01:32
TRACK 12 AUDIO
TITLE “H”
PERFORMER “Boehse Onkelz”
INDEX 00 46:18:05
INDEX 01 46:18:70


Leave a Reply

Your email address will not be published. Required fields are marked *

Enter the text from the image below
 

This site uses Akismet to reduce spam. Learn how your comment data is processed.