Böhse Onkelz – Heilige Lieder




Artist: Böhse Onkelz
Year: 1992
Genre: Oi
Notes: Discogs
Add. Notes:
Cover incl.: Yes
Encoder: FLAC
Bitrate: ~1000 kBit/s (44.1 kHz/16 Bit/s)
Log & Cue incl.: Yes
Size: 407,41 MB
Password: “slam” (without ” “)


All Downloads/Hosters are compatible

Download 1
Turbobit.net
KatFile.com
Rapidgator.net
ddl.to
Download 2
Turbobit.net
KatFile.com
Rapidgator.net
ddl.to

Tracklist:

1 - Intro Oratorium - 1:32
2 - Heilige Lieder - 4:42
3 - Buch Der Erinnerung - 4:36
4 - Nenn' Mich Wie Du Willst - 4:21
5 - Ich Bin In Dir - 3:50
6 - Scheißegal - 2:35
7 - Diese Lieder... - 5:10
8 - Gestern War Heute Noch Morgen - 3:48
9 - Schließe Deine Augen (Und Sag Mir Was Du Siehst) - 
5:26
10 - Gehasst, Verdammt, Vergöttert - 3:04
11 - Ein Langer Weg - 4:19
12 - Noreia - 3:23
13 - Der Schrei Nach Freiheit - 3:44
14 - Angst Ist Nur Ein Gefühl - 4:36
Bonus Track
15 - Wir Schreiben Geschichte - 4:02

EAC-Log, CUE-Sheed & NFO:

Click to open spoiler
Exact Audio Copy V0.99 prebeta 4 from 23. January 2008

Отчёт EAC об извлечении, выполненном 8. мая 2008, 17:23

Boehse Onkelz / Heilige Lieder

Дисковод: Optiarc DVD RW AD-7170A Adapter: 0 ID: 0

Режим чтения : Достоверность
Использование точного потока : Да
Отключение кэша аудио : Да
Использование указателей C2 : Нет

Коррекция смещения при чтении : 48
Способность читать области Lead-in и Lead-out : Нет
Заполнение пропущенных сэмплов тишиной : Да
Удаление блоков с тишиной в начале и конце : Нет
При вычислениях CRC использовались нулевые сэмплы : Да
Интерфейс : Встроенный Win32-интерфейс для Win NT/2000

Выходной формат : Пользовательский кодировщик
Выбранный битрейт : 768 kBit/s
Качество : Высокий
Добавление ID3-тэга : Нет
Утилита сжатия : C:\Program Files\Exact Audio Copy\FLAC\FLAC.EXE
Дополнительные параметры : -6 -V -T “ARTIST=%a” -T “TITLE=%t” -T “ALBUM=%g” -T “DATE=%y” -T “TRACKNUMBER=%n” -T “GENRE=%m” -T “COMMENT=%e” %s -o %d

TOC извлечённого CD

Трек | Старт | Длительность | Начальный сектор | Конечный сектор
———————————————————————
1 | 0:00.00 | 1:31.70 | 0 | 6894
2 | 1:31.70 | 4:44.05 | 6895 | 28199
3 | 6:16.00 | 4:37.25 | 28200 | 48999
4 | 10:53.25 | 4:22.00 | 49000 | 68649
5 | 15:15.25 | 3:51.00 | 68650 | 85974
6 | 19:06.25 | 2:36.25 | 85975 | 97699
7 | 21:42.50 | 5:11.50 | 97700 | 121074
8 | 26:54.25 | 3:49.50 | 121075 | 138299
9 | 30:44.00 | 5:28.00 | 138300 | 162899
10 | 36:12.00 | 3:06.00 | 162900 | 176849
11 | 39:18.00 | 4:20.37 | 176850 | 196386
12 | 43:38.37 | 3:24.13 | 196387 | 211699
13 | 47:02.50 | 3:45.25 | 211700 | 228599
14 | 50:48.00 | 4:38.25 | 228600 | 249474
15 | 55:26.25 | 4:01.67 | 249475 | 267616

Характеристики диапазона извлечения и сообщения об ошибках

Выбранный диапазон

Имя файла Q:\Boehse Onkelz\BO_-_5_albums\Heilige Lieder (1992)\Boehse Onkelz – Heilige Lieder.wav

Пиковый уровень 99.5 %
Качество диапазона 100.0 %
CRC копии 3B10BF68
Копирование… OK

Ошибок не произошло

AccurateRip: сводка

Трек 1 точность не определена (достоверность 4) [CA9DAAD1], AccurateRip вернул [CC31980F]
Трек 2 точность не определена (достоверность 3) [948F67B5], AccurateRip вернул [E7E32AF7]
Трек 3 точность не определена (достоверность 3) [7F436449], AccurateRip вернул [489BBCA1]
Трек 4 точность не определена (достоверность 3) [A1F9D01D], AccurateRip вернул [9DFA2435]
Трек 5 точность не определена (достоверность 3) [CCD42964], AccurateRip вернул [556982E4]
Трек 6 точность не определена (достоверность 3) [08DE7E65], AccurateRip вернул [9FB2A0C5]
Трек 7 точность не определена (достоверность 3) [7B77FED9], AccurateRip вернул [1313CD69]
Трек 8 точность не определена (достоверность 3) [EF5EF809], AccurateRip вернул [7D0427A1]
Трек 9 точность не определена (достоверность 3) [89EFBBA2], AccurateRip вернул [ACE26DC2]
Трек 10 точность не определена (достоверность 3) [E1C50247], AccurateRip вернул [DCB672D7]
Трек 11 точность не определена (достоверность 2) [3FEA3910], AccurateRip вернул [53BC3F40]
Трек 12 точность не определена (достоверность 2) [9A0ADD74], AccurateRip вернул [3B82C70C]
Трек 13 точность не определена (достоверность 3) [6CF39642], AccurateRip вернул [008489EA]
Трек 14 точность не определена (достоверность 2) [F20E7F4F], AccurateRip вернул [154C65E7]
Трек 15 точность не определена (достоверность 3) [D4B0FC84], AccurateRip вернул [6F3322C5]

Ни один трек не прошёл проверки на точность
В вашей базе может быть иной вариант штамповки диска

Конец отчёта

REM GENRE Rock
REM DATE 1992
REM DISCID C30DF00F
REM COMMENT “ExactAudioCopy v0.99pb4”
PERFORMER “Boehse Onkelz”
TITLE “Heilige Lieder”
FILE “Boehse Onkelz – Heilige Lieder.flac” WAVE
TRACK 01 AUDIO
TITLE “Intro Oratorium”
PERFORMER “Boehse Onkelz”
INDEX 01 00:00:00
TRACK 02 AUDIO
TITLE “Heilige Lieder”
PERFORMER “Boehse Onkelz”
INDEX 01 01:31:70
TRACK 03 AUDIO
TITLE “Buch der Erinnerung”
PERFORMER “Boehse Onkelz”
INDEX 00 06:14:55
INDEX 01 06:16:00
TRACK 04 AUDIO
TITLE “Nenn’ mich wie du willst”
PERFORMER “Boehse Onkelz”
INDEX 00 10:52:32
INDEX 01 10:53:25
TRACK 05 AUDIO
TITLE “Ich bin in dir”
PERFORMER “Boehse Onkelz”
INDEX 00 15:14:02
INDEX 01 15:15:25
TRACK 06 AUDIO
TITLE “Scheißegal”
PERFORMER “Boehse Onkelz”
INDEX 00 19:05:17
INDEX 01 19:06:25
TRACK 07 AUDIO
TITLE “Diese Lieder…”
PERFORMER “Boehse Onkelz”
INDEX 00 21:41:47
INDEX 01 21:42:50
TRACK 08 AUDIO
TITLE “Gestern war heute noch morgen”
PERFORMER “Boehse Onkelz”
INDEX 00 26:52:70
INDEX 01 26:54:25
TRACK 09 AUDIO
TITLE “Schliesse deine Augen (und sag mir was du siehst)”
PERFORMER “Boehse Onkelz”
INDEX 00 30:43:00
INDEX 01 30:44:00
TRACK 10 AUDIO
TITLE “Gehasst, verdammt, vergöttert”
PERFORMER “Boehse Onkelz”
INDEX 00 36:10:20
INDEX 01 36:12:00
TRACK 11 AUDIO
TITLE “Ein langer Weg”
PERFORMER “Boehse Onkelz”
INDEX 00 39:16:25
INDEX 01 39:18:00
TRACK 12 AUDIO
TITLE “Noreia”
PERFORMER “Boehse Onkelz”
INDEX 00 43:37:25
INDEX 01 43:38:37
TRACK 13 AUDIO
TITLE “Der Schrei nach Freiheit”
PERFORMER “Boehse Onkelz”
INDEX 00 47:01:37
INDEX 01 47:02:50
TRACK 14 AUDIO
TITLE “Angst ist nur ein Gefuehl”
PERFORMER “Boehse Onkelz”
INDEX 00 50:47:12
INDEX 01 50:48:00
TRACK 15 AUDIO
TITLE “Wir schreiben Geschichte (Bonustrack)”
PERFORMER “Boehse Onkelz”
INDEX 00 55:24:65
INDEX 01 55:26:25


Leave a Reply

Your email address will not be published. Required fields are marked *

Enter the text from the image below
 

This site uses Akismet to reduce spam. Learn how your comment data is processed.