Böhse Onkelz – Hässlich (Reissue)




Artist: Böhse Onkelz
Year: 1988/1992
Genre: Rock
Notes: Discogs
Add. Notes: Reissue
Cover incl.: No
Encoder: FLAC
Bitrate: ~900 kBit/s (44.1 kHz/16 Bit/s)
Log & Cue incl.: Yes
Size: 93,46 MB
Password: “slam” (without ” “)


All Downloads/Hosters are compatible

Download 1
Turbobit.net
KatFile.com
Rapidgator.net
ddl.to
Download 2
Turbobit.net
KatFile.com
Rapidgator.net
ddl.to

Tracklist:

1 - Frankreich '84 - 2:38
2 - Fußball + Gewalt - 3:18
3 - Mädchen - 2:19
4 - Böhse Onkelz - 2:32
5 - Hässlich - 2:27

EAC-Log, CUE-Sheed & NFO:

Click to open spoiler
Exact Audio Copy V0.99 prebeta 4 from 23. January 2008

Отчёт EAC об извлечении, выполненном 20. декабря 2008, 20:41

Bцhse Onkelz / Hдsslich

Дисковод: Optiarc DVD RW AD-7170A Adapter: 0 ID: 0

Режим чтения : Достоверность
Использование точного потока : Да
Отключение кэша аудио : Да
Использование указателей C2 : Нет

Коррекция смещения при чтении : 48
Способность читать области Lead-in и Lead-out : Нет
Заполнение пропущенных сэмплов тишиной : Да
Удаление блоков с тишиной в начале и конце : Нет
При вычислениях CRC использовались нулевые сэмплы : Да
Интерфейс : Встроенный Win32-интерфейс для Win NT/2000

Выходной формат : Пользовательский кодировщик
Выбранный битрейт : 1024 kBit/s
Качество : Высокий
Добавление ID3-тэга : Да
Утилита сжатия : C:\Program Files\Exact Audio Copy\FLAC\FLAC.EXE
Дополнительные параметры : -6 -V -T “ARTIST=%a” -T “TITLE=%t” -T “ALBUM=%g” -T “DATE=%y” -T “TRACKNUMBER=%n” -T “GENRE=%m” -T “COMMENT=%e” %s -o %d

TOC извлечённого CD

Трек | Старт | Длительность | Начальный сектор | Конечный сектор
———————————————————————
1 | 0:00.00 | 2:39.35 | 0 | 11959
2 | 2:39.35 | 3:19.70 | 11960 | 26954
3 | 5:59.30 | 2:20.65 | 26955 | 37519
4 | 8:20.20 | 2:33.40 | 37520 | 49034
5 | 10:53.60 | 2:30.33 | 49035 | 60317

Характеристики диапазона извлечения и сообщения об ошибках

Выбранный диапазон

Имя файла E:\BO\1988-Haesslich\Boehse Onkelz – Haesslich.wav

Пиковый уровень 87.5 %
Качество диапазона 99.9 %
CRC копии F0F5C576
Копирование… OK

Ошибок не произошло

Конец отчёта

REM GENRE Rock
REM DISCID 2B032405
REM COMMENT “ExactAudioCopy v0.99pb4”
PERFORMER “Böhse Onkelz”
TITLE “Hässlich”
FILE “Boehse Onkelz – Haesslich.flac” WAVE
TRACK 01 AUDIO
TITLE “Frankreich’84”
PERFORMER “Böhse Onkelz”
INDEX 01 00:00:00
TRACK 02 AUDIO
TITLE “Fußball & Gewalt”
PERFORMER “Böhse Onkelz”
INDEX 00 02:36:63
INDEX 01 02:39:35
TRACK 03 AUDIO
TITLE “Mädchen”
PERFORMER “Böhse Onkelz”
INDEX 00 05:56:66
INDEX 01 05:59:30
TRACK 04 AUDIO
TITLE “Böhse Onkelz”
PERFORMER “Böhse Onkelz”
INDEX 00 08:18:51
INDEX 01 08:20:20
TRACK 05 AUDIO
TITLE “Hässlich”
PERFORMER “Böhse Onkelz”
INDEX 00 10:52:71
INDEX 01 10:53:60


Leave a Reply

Your email address will not be published. Required fields are marked *

Enter the text from the image below
 

This site uses Akismet to reduce spam. Learn how your comment data is processed.