Böhse Onkelz – Gestern War Heute Noch Morgen




Artist: Böhse Onkelz
Year: 2001
Genre: Rock
Notes: Discogs
Add. Notes:
Cover incl.: Yes
Encoder: FLAC
Bitrate: ~1000 kBit/s (44.1 kHz/16 Bit/s)
Log & Cue incl.: Yes
Size: 4700,7 MB
Password: “slam” (without ” “)


All Downloads/Hosters are compatible

Download 1
KatFile.com
Turbobit.net
FileFactory.com
Rapidgator.net
Download 2
KatFile.com
Turbobit.net
FileFactory.com
Rapidgator.net

Tracklist:

Gestern
1-01 - Dunkler Ort - 4:14
1-02 - Finde Die Wahrheit - 4:03
1-03 - Kirche - 5:37
1-04 - Nichts Ist Für Die Ewigkeit - 
5:32
1-05 - Onkelz 2000 - 4:12
1-06 - So Sind Wir - 3:42
1-07 - Terpentin - 3:56
1-08 - Wir Ham' Noch Lange Nicht 
Genug - 4:50
1-09 - Hier Sind Die Onkelz - 4:37
1-10 - Auf Gute Freunde - 5:17
1-11 - Danket Dem Herrn - 4:04
1-12 - Danke Für Nichts - 3:39
1-13 - Lieber Stehend Sterben - 3:48
1-14 - Nur Die Besten Sterben Jung - 
3:55
1-15 - Kneipenterroristen - 3:42
1-16 - Nie Wieder - 4:10
1-17 - Das Ist Mein Leben - 4:11
Heute
2-01 - Das Wunder Der 
Persönlichkeit - 5:12
2-02 - Ich - 3:49
2-03 - Für Immer - 5:33
2-04 - Du Kannst Alles Haben - 3:46
2-05 - Ein Langer Weg - 4:19
2-06 - Entfache Dieses Feuer - 4:19
2-07 - Schutzgeist Der Scheiße - 4:47
2-08 - Worte Der Freiheit - 5:26
2-09 - Koma - 4:56
2-10 - Deutschland Im Herbst - 4:29
2-11 - Regen - 8:41
2-12 - 1000 Fragen - 4:54
2-13 - Bin Ich Nur Glücklich, Wenn Es 
Schmerzt - 5:27
2-14 - Weit Weg - 5:18
2-15 - Schrei Nach Freiheit - 3:44
Morgen
3-01 - Ich Bin In Dir (Version 2001) - 
3:02
3-02 - Wieder Mal 'Nen Tag 
Verschenkt (Version 
2001)3:40
3-03 - Ein Mensch Wie Du Und Ich 
(Wiederaufnahme) 
1:43
3-04 - Das Tier In Mir 
(Wiederaufnahme) - 4:14
3-05 - Heut Nacht 
(Wiederaufnahme) - 2:59
3-06 - Mexico (Originalfassung) - 
4:13
3-07 - Lügenmarsch - 3:41
3-08 - Stöckel Und Strapse - 3:07
3-09 - Heute Trinken Wir Richtig - 
4:46
3-10 - 11/97 - 2:59
3-11 - Erinnerungen (Live In Berlin 
Juni 2000) - 5:51
3-12 - Könige Für Einen Tag - 4:02
3-13 - Stunde Des Siegers - 4:54
3-14 - Benutz Mich - 4:00
3-15 - Wie Tief Willst Du Noch 
Sinken - 5:14

EAC-Log, CUE-Sheed & NFO:

Click to open spoiler
Exact Audio Copy V0.99 prebeta 4 from 23. January 2008

Отчёт EAC об извлечении, выполненном 16. июня 2008, 22:09

Boehse Onkelz / Best of – gestern war heute noch morgen (CD1 – Gestern)

Дисковод: Optiarc DVD RW AD-7170A Adapter: 0 ID: 0

Режим чтения : Достоверность
Использование точного потока : Да
Отключение кэша аудио : Да
Использование указателей C2 : Нет

Коррекция смещения при чтении : 48
Способность читать области Lead-in и Lead-out : Нет
Заполнение пропущенных сэмплов тишиной : Да
Удаление блоков с тишиной в начале и конце : Нет
При вычислениях CRC использовались нулевые сэмплы : Да
Интерфейс : Встроенный Win32-интерфейс для Win NT/2000

Выходной формат : Пользовательский кодировщик
Выбранный битрейт : 768 kBit/s
Качество : Высокий
Добавление ID3-тэга : Нет
Утилита сжатия : C:\Program Files\Exact Audio Copy\FLAC\FLAC.EXE
Дополнительные параметры : -6 -V -T “ARTIST=%a” -T “TITLE=%t” -T “ALBUM=%g” -T “DATE=%y” -T “TRACKNUMBER=%n” -T “GENRE=%m” -T “COMMENT=%e” %s -o %d

TOC извлечённого CD

Трек | Старт | Длительность | Начальный сектор | Конечный сектор
———————————————————————
1 | 0:00.32 | 4:14.18 | 32 | 19099
2 | 4:14.50 | 4:04.62 | 19100 | 37461
3 | 8:19.37 | 5:37.10 | 37462 | 62746
4 | 13:56.47 | 5:32.60 | 62747 | 87706
5 | 19:29.32 | 4:11.55 | 87707 | 106586
6 | 23:41.12 | 3:43.70 | 106587 | 123381
7 | 27:25.07 | 3:55.68 | 123382 | 141074
8 | 31:21.00 | 4:50.45 | 141075 | 162869
9 | 36:11.45 | 4:38.07 | 162870 | 183726
10 | 40:49.52 | 5:18.55 | 183727 | 207631
11 | 46:08.32 | 4:04.43 | 207632 | 225974
12 | 50:13.00 | 3:39.62 | 225975 | 242461
13 | 53:52.62 | 3:57.70 | 242462 | 260306
14 | 57:50.57 | 3:56.50 | 260307 | 278056
15 | 61:47.32 | 3:44.25 | 278057 | 294881
16 | 65:31.57 | 4:15.00 | 294882 | 314006
17 | 69:46.57 | 4:12.00 | 314007 | 332906

Характеристики диапазона извлечения и сообщения об ошибках

Выбранный диапазон

Имя файла D:\My torrents\Boehse_Onkelz_lossless\2001-Best of – gestern war heute noch morgen (CD1 – Gestern)\Boehse Onkelz – Best of – gestern war heute noch morgen (CD1 – Gestern).wav

Пиковый уровень 100.0 %
Качество диапазона 100.0 %
CRC копии 23EE0110
Копирование… OK

Ошибок не произошло

AccurateRip: сводка

Трек 1 точное извлечение (доверие 5) [F409A70A]
Трек 2 точное извлечение (доверие 5) [1EA5963A]
Трек 3 точное извлечение (доверие 5) [C6B386A0]
Трек 4 точное извлечение (доверие 5) [2532CD25]
Трек 5 точное извлечение (доверие 5) [7722AD60]
Трек 6 точное извлечение (доверие 5) [C188DBEB]
Трек 7 точное извлечение (доверие 5) [78B418CB]
Трек 8 точное извлечение (доверие 5) [6F3CCED0]
Трек 9 точное извлечение (доверие 5) [BD9D7A01]
Трек 10 точное извлечение (доверие 5) [FD095780]
Трек 11 точное извлечение (доверие 5) [A2EB19FB]
Трек 12 точное извлечение (доверие 6) [FB0627BC]
Трек 13 точное извлечение (доверие 5) [DE669371]
Трек 14 точное извлечение (доверие 5) [5327BBB4]
Трек 15 точное извлечение (доверие 5) [0854100A]
Трек 16 точное извлечение (доверие 5) [10EB5FAA]
Трек 17 точное извлечение (доверие 6) [AC7419B2]

Все треки извлечены точно

Конец отчёта

—–

Exact Audio Copy V0.99 prebeta 4 from 23. January 2008

Отчёт EAC об извлечении, выполненном 16. июня 2008, 21:53

Boehse Onkelz / Best of : gestern war heute noch morgen (CD2 -Heute)

Дисковод: Optiarc DVD RW AD-7170A Adapter: 0 ID: 0

Режим чтения : Достоверность
Использование точного потока : Да
Отключение кэша аудио : Да
Использование указателей C2 : Нет

Коррекция смещения при чтении : 48
Способность читать области Lead-in и Lead-out : Нет
Заполнение пропущенных сэмплов тишиной : Да
Удаление блоков с тишиной в начале и конце : Нет
При вычислениях CRC использовались нулевые сэмплы : Да
Интерфейс : Встроенный Win32-интерфейс для Win NT/2000

Выходной формат : Пользовательский кодировщик
Выбранный битрейт : 768 kBit/s
Качество : Высокий
Добавление ID3-тэга : Нет
Утилита сжатия : C:\Program Files\Exact Audio Copy\FLAC\FLAC.EXE
Дополнительные параметры : -6 -V -T “ARTIST=%a” -T “TITLE=%t” -T “ALBUM=%g” -T “DATE=%y” -T “TRACKNUMBER=%n” -T “GENRE=%m” -T “COMMENT=%e” %s -o %d

TOC извлечённого CD

Трек | Старт | Длительность | Начальный сектор | Конечный сектор
———————————————————————
1 | 0:00.32 | 5:13.25 | 32 | 23531
2 | 5:13.57 | 3:50.00 | 23532 | 40781
3 | 9:03.57 | 5:37.00 | 40782 | 66056
4 | 14:40.57 | 3:47.50 | 66057 | 83131
5 | 18:28.32 | 4:20.33 | 83132 | 102664
6 | 22:48.65 | 4:20.57 | 102665 | 122221
7 | 27:09.47 | 4:47.63 | 122222 | 143809
8 | 31:57.35 | 5:26.47 | 143810 | 168306
9 | 37:24.07 | 4:57.15 | 168307 | 190596
10 | 42:21.22 | 4:32.35 | 190597 | 211031
11 | 46:53.57 | 8:41.30 | 211032 | 250136
12 | 55:35.12 | 4:59.08 | 250137 | 272569
13 | 60:34.20 | 5:36.62 | 272570 | 297831
14 | 66:11.07 | 5:19.58 | 297832 | 321814
15 | 71:30.65 | 3:44.67 | 321815 | 338681

Характеристики диапазона извлечения и сообщения об ошибках

Выбранный диапазон

Имя файла D:\My torrents\Boehse_Onkelz_lossless\2001-Best of – gestern war heute noch morgen (CD2 – Heute)\Boehse Onkelz – Best of gestern war heute noch morgen (CD2 -Heute).wav

Пиковый уровень 100.0 %
Качество диапазона 99.9 %
CRC копии D5D89C60
Копирование… OK

Ошибок не произошло

AccurateRip: сводка

Трек 1 точное извлечение (доверие 4) [FF1D8177]
Трек 2 точное извлечение (доверие 4) [53C50EB4]
Трек 3 точное извлечение (доверие 4) [1785FD36]
Трек 4 точное извлечение (доверие 4) [47272A2A]
Трек 5 точное извлечение (доверие 4) [C19BC41A]
Трек 6 точное извлечение (доверие 4) [23809BB6]
Трек 7 точное извлечение (доверие 4) [CC0CE9AE]
Трек 8 точное извлечение (доверие 4) [9C9BAFD7]
Трек 9 точное извлечение (доверие 4) [3CC95FDE]
Трек 10 точное извлечение (доверие 4) [2F7241CB]
Трек 11 точное извлечение (доверие 4) [83A71D55]
Трек 12 точное извлечение (доверие 4) [D27C6A67]
Трек 13 точное извлечение (доверие 4) [A633B932]
Трек 14 точное извлечение (доверие 4) [3EC3D60B]
Трек 15 точное извлечение (доверие 5) [068DAA59]

Все треки извлечены точно

Конец отчёта

—–

Exact Audio Copy V0.99 prebeta 4 from 23. January 2008

Отчёт EAC об извлечении, выполненном 16. июня 2008, 21:36

Boehse Onkelz / Best of – gestern war heute noch morgen (CD3 – Morgen)

Дисковод: Optiarc DVD RW AD-7170A Adapter: 0 ID: 0

Режим чтения : Достоверность
Использование точного потока : Да
Отключение кэша аудио : Да
Использование указателей C2 : Нет

Коррекция смещения при чтении : 48
Способность читать области Lead-in и Lead-out : Нет
Заполнение пропущенных сэмплов тишиной : Да
Удаление блоков с тишиной в начале и конце : Нет
При вычислениях CRC использовались нулевые сэмплы : Да
Интерфейс : Встроенный Win32-интерфейс для Win NT/2000

Выходной формат : Пользовательский кодировщик
Выбранный битрейт : 768 kBit/s
Качество : Высокий
Добавление ID3-тэга : Нет
Утилита сжатия : C:\Program Files\Exact Audio Copy\FLAC\FLAC.EXE
Дополнительные параметры : -6 -V -T “ARTIST=%a” -T “TITLE=%t” -T “ALBUM=%g” -T “DATE=%y” -T “TRACKNUMBER=%n” -T “GENRE=%m” -T “COMMENT=%e” %s -o %d

TOC извлечённого CD

Трек | Старт | Длительность | Начальный сектор | Конечный сектор
———————————————————————
1 | 0:00.32 | 3:01.50 | 32 | 13656
2 | 3:02.07 | 3:39.15 | 13657 | 30096
3 | 6:41.22 | 1:41.10 | 30097 | 37681
4 | 8:22.32 | 4:16.50 | 37682 | 56931
5 | 12:39.07 | 2:59.45 | 56932 | 70401
6 | 15:38.52 | 4:14.05 | 70402 | 89456
7 | 19:52.57 | 4:26.30 | 89457 | 109436
8 | 24:19.12 | 3:08.15 | 109437 | 123551
9 | 27:27.27 | 4:48.48 | 123552 | 145199
10 | 32:16.00 | 2:58.55 | 145200 | 158604
11 | 35:14.55 | 5:41.32 | 158605 | 184211
12 | 40:56.12 | 4:08.35 | 184212 | 202846
13 | 45:04.47 | 4:57.53 | 202847 | 225174
14 | 50:02.25 | 3:42.40 | 225175 | 241864
15 | 53:44.65 | 5:12.67 | 241865 | 265331

Характеристики диапазона извлечения и сообщения об ошибках

Выбранный диапазон

Имя файла D:\My torrents\Boehse_Onkelz_lossless\2001-Best of – gestern war heute noch morgen (CD3 – Morgen)\Boehse Onkelz – Best of – gestern war heute noch morgen (CD3 – Morgen).wav

Пиковый уровень 100.0 %
Качество диапазона 100.0 %
CRC копии 2E8953B8
Копирование… OK

Ошибок не произошло

AccurateRip: сводка

Трек 1 точное извлечение (доверие 2) [BDD0CFDB]
Трек 2 точное извлечение (доверие 2) [980597BB]
Трек 3 точное извлечение (доверие 2) [C8369836]
Трек 4 точное извлечение (доверие 2) [23A58810]
Трек 5 точное извлечение (доверие 2) [03106071]
Трек 6 точное извлечение (доверие 2) [0AB067FF]
Трек 7 точное извлечение (доверие 2) [55681DA9]
Трек 8 точное извлечение (доверие 2) [998A4CEC]
Трек 9 точное извлечение (доверие 2) [9D053426]
Трек 10 точное извлечение (доверие 2) [5074852F]
Трек 11 точное извлечение (доверие 2) [0BEB7EFB]
Трек 12 точное извлечение (доверие 2) [EA456392]
Трек 13 точное извлечение (доверие 2) [84F9F4C4]
Трек 14 точное извлечение (доверие 2) [8E370FC1]
Трек 15 точное извлечение (доверие 3) [508422AC]

Все треки извлечены точно

Конец отчёта

—————————
—————————-

REM GENRE “Oi! Punk”
REM DATE 2001
REM DISCID EA115611
REM COMMENT “ExactAudioCopy v0.99pb4”
PERFORMER “Boehse Onkelz”
TITLE “Best of – gestern war heute noch morgen (CD1 – Gestern)”
FILE “Boehse Onkelz – Best of – gestern war heute noch morgen (CD1 – Gestern).flac” WAVE
TRACK 01 AUDIO
TITLE “Dunkler Ort (Ein böses Märchen 2000)”
PERFORMER “Boehse Onkelz”
INDEX 00 00:00:00
INDEX 01 00:00:32
TRACK 02 AUDIO
TITLE “Finde die Wahrheit (Hier sind die Onkelz 1995)”
PERFORMER “Boehse Onkelz”
INDEX 01 04:14:50
TRACK 03 AUDIO
TITLE “Kirche (E.I.N.S. 2000)”
PERFORMER “Boehse Onkelz”
INDEX 00 08:18:32
INDEX 01 08:19:37
TRACK 04 AUDIO
TITLE “Nichts ist für die Ewigkeit (Es ist Soweit 1990)”
PERFORMER “Boehse Onkelz”
INDEX 00 13:55:55
INDEX 01 13:56:47
TRACK 05 AUDIO
TITLE “Onkelz 2000 (Ein böses Märchen 2000)”
PERFORMER “Boehse Onkelz”
INDEX 00 19:28:07
INDEX 01 19:29:32
TRACK 06 AUDIO
TITLE “So sind wir (Kneipenterroristen 1988)”
PERFORMER “Boehse Onkelz”
INDEX 00 23:41:02
INDEX 01 23:41:12
TRACK 07 AUDIO
TITLE “Terpentin (Viva Los Tioz 1998)”
PERFORMER “Boehse Onkelz”
INDEX 00 27:24:30
INDEX 01 27:25:07
TRACK 08 AUDIO
TITLE “Wir ham’ noch lange nicht genug (Wir ham’ noch lange nicht genug 1991)”
PERFORMER “Boehse Onkelz”
INDEX 00 31:20:25
INDEX 01 31:21:00
TRACK 09 AUDIO
TITLE “Hier sind die Onkelz (Hier sind die Onkelz 1995)”
PERFORMER “Boehse Onkelz”
INDEX 00 36:10:55
INDEX 01 36:11:45
TRACK 10 AUDIO
TITLE “Auf gute Freunde (E.I.N.S. 1996)”
PERFORMER “Boehse Onkelz”
INDEX 00 40:48:60
INDEX 01 40:49:52
TRACK 11 AUDIO
TITLE “Danket dem Herrn (E.I.N.S. 1996)”
PERFORMER “Boehse Onkelz”
INDEX 00 46:07:62
INDEX 01 46:08:32
TRACK 12 AUDIO
TITLE “Danke für Nichts (Hier sind die Onkelz 1995)”
PERFORMER “Boehse Onkelz”
INDEX 00 50:12:10
INDEX 01 50:13:00
TRACK 13 AUDIO
TITLE “Lieber stehend sterben (Weiss 1993)”
PERFORMER “Boehse Onkelz”
INDEX 01 53:52:62
TRACK 14 AUDIO
TITLE “Nur die Besten sterben jung (Wir ham’ noch lange nicht genug 1991)”
PERFORMER “Boehse Onkelz”
INDEX 00 57:50:32
INDEX 01 57:50:57
TRACK 15 AUDIO
TITLE “Kneipenterroristen (Kneipenterroristen 1988)”
PERFORMER “Boehse Onkelz”
INDEX 00 61:46:32
INDEX 01 61:47:32
TRACK 16 AUDIO
TITLE “Nie wieder (Kneipenterroristen 1988)”
PERFORMER “Boehse Onkelz”
INDEX 00 65:30:67
INDEX 01 65:31:57
TRACK 17 AUDIO
TITLE “Das ist mein Leben (Wir ham’ noch lange nicht genug 1991)”
PERFORMER “Boehse Onkelz”
INDEX 00 69:46:10
INDEX 01 69:46:57

REM GENRE “Oi! Punk”
REM DATE 2001
REM DISCID CD11A30F
REM COMMENT “ExactAudioCopy v0.99pb4”
PERFORMER “Boehse Onkelz”
TITLE “Best of : gestern war heute noch morgen (CD2 -Heute)”
FILE “Boehse Onkelz – Best of gestern war heute noch morgen (CD2 -Heute).flac” WAVE
TRACK 01 AUDIO
TITLE “Das Wunder der Persönlichkeit (Weiss 1993)”
PERFORMER “Boehse Onkelz”
INDEX 00 00:00:00
INDEX 01 00:00:32
TRACK 02 AUDIO
TITLE “Ich (Hier sind die Onkelz 1995)”
PERFORMER “Boehse Onkelz”
INDEX 00 05:13:20
INDEX 01 05:13:57
TRACK 03 AUDIO
TITLE “Für immer (Weiss 1993)”
PERFORMER “Boehse Onkelz”
INDEX 00 09:03:02
INDEX 01 09:03:57
TRACK 04 AUDIO
TITLE “Du kannst alles haben (Hier sind die Onkelz 1995)”
PERFORMER “Boehse Onkelz”
INDEX 00 14:39:32
INDEX 01 14:40:57
TRACK 05 AUDIO
TITLE “Ein langer Weg (Heilige Lieder 1992)”
PERFORMER “Boehse Onkelz”
INDEX 00 18:27:25
INDEX 01 18:28:32
TRACK 06 AUDIO
TITLE “Entfache dieses Feuer(Weiss 1993)”
PERFORMER “Boehse Onkelz”
INDEX 00 22:47:65
INDEX 01 22:48:65
TRACK 07 AUDIO
TITLE “Schutzgeist der Scheiße (Ein böses Märchen 2000)”
PERFORMER “Boehse Onkelz”
INDEX 00 27:07:67
INDEX 01 27:09:47
TRACK 08 AUDIO
TITLE “Worte der Freiheit (Schwarz 1993)”
PERFORMER “Boehse Onkelz”
INDEX 00 31:56:55
INDEX 01 31:57:35
TRACK 09 AUDIO
TITLE “Koma (E.I.N.S. 1996)”
PERFORMER “Boehse Onkelz”
INDEX 00 37:23:17
INDEX 01 37:24:07
TRACK 10 AUDIO
TITLE “Deutschland im Herbst (Weiss 1993)”
PERFORMER “Boehse Onkelz”
INDEX 00 42:20:52
INDEX 01 42:21:22
TRACK 11 AUDIO
TITLE “Regen (E.I.N.S. 1996)”
PERFORMER “Boehse Onkelz”
INDEX 00 46:53:10
INDEX 01 46:53:57
TRACK 12 AUDIO
TITLE “1000 Fragen (Schwarz 1993)”
PERFORMER “Boehse Onkelz”
INDEX 00 55:34:10
INDEX 01 55:35:12
TRACK 13 AUDIO
TITLE “Bin ich nur glücklich, wenn es schmerzt (Viva los Tioz 1998)”
PERFORMER “Boehse Onkelz”
INDEX 00 60:33:12
INDEX 01 60:34:20
TRACK 14 AUDIO
TITLE “Weit weg (Viva los Tioz 1998)”
PERFORMER “Boehse Onkelz”
INDEX 00 66:09:55
INDEX 01 66:11:07
TRACK 15 AUDIO
TITLE “Schrei nach Freiheit (Heilige Lieder 1992)”
PERFORMER “Boehse Onkelz”
INDEX 00 71:29:27
INDEX 01 71:30:65

—–

REM GENRE Rock
REM DATE 2001
REM DISCID BE0DD10F
REM COMMENT “ExactAudioCopy v0.99pb4”
PERFORMER “Boehse Onkelz”
TITLE “Best of – gestern war heute noch morgen (CD3 – Morgen)”
FILE “Boehse Onkelz – Best of – gestern war heute noch morgen (CD3 – Morgen).flac” WAVE
TRACK 01 AUDIO
TITLE “Ich bin in Dir (Heilige Lieder 1992)”
PERFORMER “Boehse Onkelz”
INDEX 00 00:00:00
INDEX 01 00:00:32
TRACK 02 AUDIO
TITLE “Wieder mal ‘nen Tag verschenkt ( Wir ham’ noch lange nicht genug 1991)”
PERFORMER “Boehse Onkelz”
INDEX 00 03:01:50
INDEX 01 03:02:07
TRACK 03 AUDIO
TITLE “Ein Mensch wie Du und ich (Boese Menschen, boese Lieder 1985)”
PERFORMER “Boehse Onkelz”
INDEX 00 06:40:10
INDEX 01 06:41:22
TRACK 04 AUDIO
TITLE ” Das Tier in mir (Mexico 1985)”
PERFORMER “Boehse Onkelz”
INDEX 00 08:21:55
INDEX 01 08:22:32
TRACK 05 AUDIO
TITLE ” Heut Nacht (Onkelz wie wir 1987)”
PERFORMER “Boehse Onkelz”
INDEX 00 12:38:30
INDEX 01 12:39:07
TRACK 06 AUDIO
TITLE “Mexico (Mexico 1985)”
PERFORMER “Boehse Onkelz”
INDEX 00 15:38:05
INDEX 01 15:38:52
TRACK 07 AUDIO
TITLE “Luegenmarsch (Luegenmarsch 1989)”
PERFORMER “Boehse Onkelz”
INDEX 00 19:52:12
INDEX 01 19:52:57
TRACK 08 AUDIO
TITLE “Stoeckel und Strapse (Mexico 1985)”
PERFORMER “Boehse Onkelz”
INDEX 00 24:17:52
INDEX 01 24:19:12
TRACK 09 AUDIO
TITLE “Heute trinken wir richtig (Boese Menschen, boese Lieder 1985)”
PERFORMER “Boehse Onkelz”
INDEX 00 27:26:20
INDEX 01 27:27:27
TRACK 10 AUDIO
TITLE “11/97 (Shape CD 1998)”
PERFORMER “Boehse Onkelz”
INDEX 00 32:15:32
INDEX 01 32:16:00
TRACK 11 AUDIO
TITLE “Erinnerungen (Onkelz wie wir 1987)”
PERFORMER “Boehse Onkelz”
INDEX 00 35:13:65
INDEX 01 35:14:55
TRACK 12 AUDIO
TITLE “Koenige fuer einen Tag (Luegenmarsch 1989)”
PERFORMER “Boehse Onkelz”
INDEX 00 40:55:25
INDEX 01 40:56:12
TRACK 13 AUDIO
TITLE “Stunde des Siegers (Boese Menschen, boese Lieder 1985)”
PERFORMER “Boehse Onkelz”
INDEX 00 45:03:22
INDEX 01 45:04:47
TRACK 14 AUDIO
TITLE “Benutz mich (Finde die Wahrheit 1995)”
PERFORMER “Boehse Onkelz”
INDEX 00 50:01:10
INDEX 01 50:02:25
TRACK 15 AUDIO
TITLE “Wie tief willst Du noch sinken (E.I.N.S. 1996)”
PERFORMER “Boehse Onkelz”
INDEX 00 53:43:47
INDEX 01 53:44:65


Leave a Reply

Your email address will not be published. Required fields are marked *

This site uses Akismet to reduce spam. Learn how your comment data is processed.