Böhse Onkelz – Gehasst, Verdammt, Vergöttert




[Total: 0    Average: 0/5]

Artist: Böhse Onkelz
Year: 1994
Genre: Oi
Notes: Discogs
Add. Notes:
Cover incl.: Yes
Encoder: FLAC
Bitrate: ~1000 kBit/s (44.1 kHz/16 Bit/s)
Log & Cue incl.: Yes
Size: 567,49 MB
Password: “slam” (without ” “)


All Downloads/Hosters are compatible

Download 1
Share-online.biz
KatFile.com
Rapidgator.net
ddl.to
Download 2
Share-online.biz
KatFile.com
Rapidgator.net
ddl.to

Tracklist:

1-01 - Lieber Stehend Sterben - 3:58
1-02 - Gehasst, Verdammt, Vergöttert - 3:05
1-03 - Wir Ham' Noch Lange Nicht Genug - 4:42
1-04 - Ich Bin In Dir - 3:51
1-05 - Mexico - 2:50
1-06 - Heilige Lieder - 4:44
1-07 - Wenn Wir Einmal Engel Sind - 3:59
1-08 - Wieder Mal 'Nen Tag Verschenkt - 4:06
1-09 - Scheissegal - 2:36
1-10 - Schöne Neue Welt - 4:36
1-11 - Nur Die Besten Sterben Jung - 3:56
1-12 - Ich Lieb' Mich - 1:23
1-13 - Erinnerungen - 4:23
1-14 - Deutschland Im Herbst - 4:33
1-15 - Für Immer - 5:36
1-16 - Ich Bin Wie Ich Bin - 4:47
1-17 - Die Böhsen Onkelz Geben Sich Die Ehre 
(Unveröffentlicht) - 4:24

2-01 - Worte Der Freiheit - 5:40
2-02 - Nenn' Mich Wie Du Willst - 3:28
2-03 - Entfache Dieses Feuer - 3:14
2-04 - Das Ist Mein Leben - 3:16

EAC-Log, CUE-Sheed & NFO:

Click to open spoiler
Exact Audio Copy V0.99 prebeta 4 from 23. January 2008

????? EAC ?? ??????????, ??????????? 16. ???? 2008, 21:06

Boehse Onkelz / Gehasst, verdammt, vergoettert (CD1)

????????: Optiarc DVD RW AD-7170A Adapter: 0 ID: 0

????? ?????? : ?????????????
????????????? ??????? ?????? : ??
?????????? ???? ????? : ??
????????????? ?????????? C2 : ???

????????? ???????? ??? ?????? : 48
??????????? ?????? ??????? Lead-in ? Lead-out : ???
?????????? ??????????? ??????? ??????? : ??
???????? ?????? ? ??????? ? ?????? ? ????? : ???
??? ??????????? CRC ?????????????? ??????? ?????? : ??
????????? : ?????????? Win32-????????? ??? Win NT/2000

???????? ?????? : ???????????????? ??????????
????????? ??????? : 768 kBit/s
???????? : ???????
?????????? ID3-???? : ???
??????? ?????? : C:\Program Files\Exact Audio Copy\FLAC\FLAC.EXE
?????????????? ????????? : -6 -V -T “ARTIST=%a” -T “TITLE=%t” -T “ALBUM=%g” -T “DATE=%y” -T “TRACKNUMBER=%n” -T “GENRE=%m” -T “COMMENT=%e” %s -o %d

TOC ???????????? CD

???? | ????? | ???????????? | ????????? ?????? | ???????? ??????
———————————————————————
1 | 0:00.00 | 3:58.62 | 0 | 17911
2 | 3:58.62 | 3:05.50 | 17912 | 31836
3 | 7:04.37 | 4:42.50 | 31837 | 53036
4 | 11:47.12 | 3:51.00 | 53037 | 70361
5 | 15:38.12 | 2:50.38 | 70362 | 83149
6 | 18:28.50 | 4:44.37 | 83150 | 104486
7 | 23:13.12 | 3:59.13 | 104487 | 122424
8 | 27:12.25 | 4:06.00 | 122425 | 140874
9 | 31:18.25 | 2:36.50 | 140875 | 152624
10 | 33:55.00 | 4:36.25 | 152625 | 173349
11 | 38:31.25 | 3:56.50 | 173350 | 191099
12 | 42:28.00 | 1:23.62 | 191100 | 197386
13 | 43:51.62 | 4:23.13 | 197387 | 217124
14 | 48:15.00 | 4:33.00 | 217125 | 237599
15 | 52:48.00 | 5:36.62 | 237600 | 262861
16 | 58:24.62 | 4:47.63 | 262862 | 284449
17 | 63:12.50 | 4:24.57 | 284450 | 304306

?????????????? ????????? ?????????? ? ????????? ?? ???????

????????? ????????

??? ????? D:\My torrents\Boehse_Onkelz_lossless\1994-Gehasst, verdammt, vergoettert CD1\Boehse Onkelz – Gehasst, verdammt, vergoettert (CD1).wav

??????? ??????? 100.0 %
???????? ????????? 100.0 %
CRC ????? 1DEA24DB
???????????… OK

?????? ?? ?????????

AccurateRip: ??????

???? 1 ?????? ?????????? (??????? 2) [EF412A6A]
???? 2 ?????? ?????????? (??????? 2) [B4EB6D70]
???? 3 ?????? ?????????? (??????? 2) [7E81ED2C]
???? 4 ?????? ?????????? (??????? 2) [9B63C102]
???? 5 ?????? ?????????? (??????? 2) [601A63E0]
???? 6 ?????? ?????????? (??????? 2) [FDC37816]
???? 7 ?????? ?????????? (??????? 2) [84CFE735]
???? 8 ?????? ?????????? (??????? 2) [D6A8FA02]
???? 9 ?????? ?????????? (??????? 2) [3172EC06]
???? 10 ?????? ?????????? (??????? 2) [E2906750]
???? 11 ?????? ?????????? (??????? 2) [980F04C9]
???? 12 ?????? ?????????? (??????? 2) [A594F040]
???? 13 ?????? ?????????? (??????? 2) [4FA98B8D]
???? 14 ?????? ?????????? (??????? 2) [5F9928F9]
???? 15 ?????? ?????????? (??????? 2) [184D3776]
???? 16 ?????? ?????????? (??????? 2) [87E04F27]
???? 17 ?????? ?????????? (??????? 2) [F57A81D7]

??? ????? ????????? ?????

????? ??????

Exact Audio Copy V0.99 prebeta 4 from 23. January 2008

????? EAC ?? ??????????, ??????????? 16. ???? 2008, 21:13

Boehse Onkelz / Gehasst, verdammt, vergoettert (CD2)

????????: Optiarc DVD RW AD-7170A Adapter: 0 ID: 0

????? ?????? : ?????????????
????????????? ??????? ?????? : ??
?????????? ???? ????? : ??
????????????? ?????????? C2 : ???

????????? ???????? ??? ?????? : 48
??????????? ?????? ??????? Lead-in ? Lead-out : ???
?????????? ??????????? ??????? ??????? : ??
???????? ?????? ? ??????? ? ?????? ? ????? : ???
??? ??????????? CRC ?????????????? ??????? ?????? : ??
????????? : ?????????? Win32-????????? ??? Win NT/2000

???????? ?????? : ???????????????? ??????????
????????? ??????? : 768 kBit/s
???????? : ???????
?????????? ID3-???? : ???
??????? ?????? : C:\Program Files\Exact Audio Copy\FLAC\FLAC.EXE
?????????????? ????????? : -6 -V -T “ARTIST=%a” -T “TITLE=%t” -T “ALBUM=%g” -T “DATE=%y” -T “TRACKNUMBER=%n” -T “GENRE=%m” -T “COMMENT=%e” %s -o %d

TOC ???????????? CD

???? | ????? | ???????????? | ????????? ?????? | ???????? ??????
———————————————————————
1 | 0:00.00 | 5:40.12 | 0 | 25511
2 | 5:40.12 | 3:28.38 | 25512 | 41149
3 | 9:08.50 | 3:14.50 | 41150 | 55749
4 | 12:23.25 | 3:16.12 | 55750 | 70461

?????????????? ????????? ?????????? ? ????????? ?? ???????

????????? ????????

??? ????? D:\My torrents\Boehse_Onkelz_lossless\1994-Gehasst, verdammt, vergoettert CD2\Boehse Onkelz – Gehasst, verdammt, vergoettert (CD2).wav

??????? ??????? 100.0 %
???????? ????????? 100.0 %
CRC ????? 8A232FC6
???????????… OK

?????? ?? ?????????

AccurateRip: ??????

???? 1 ?????? ?????????? (??????? 2) [F966E6A7]
???? 2 ?????? ?????????? (??????? 2) [8B7850E4]
???? 3 ?????? ?????????? (??????? 2) [9572C79A]
???? 4 ?????? ?????????? (??????? 3) [7AF63991]

??? ????? ????????? ?????

????? ??????

REM GENRE Rock
REM DATE 1994
REM DISCID DE0FD911
REM COMMENT “ExactAudioCopy v0.99pb4”
PERFORMER “Boehse Onkelz”
TITLE “Gehasst, verdammt, vergoettert (CD1)”
FILE “Boehse Onkelz – Gehasst, verdammt, vergoettert (CD1).flac” WAVE
TRACK 01 AUDIO
TITLE “Lieber stehend sterben”
PERFORMER “Boehse Onkelz”
INDEX 01 00:00:00
TRACK 02 AUDIO
TITLE “Gehasst, verdammt, vergöttert”
PERFORMER “Boehse Onkelz”
INDEX 00 03:57:35
INDEX 01 03:58:62
TRACK 03 AUDIO
TITLE “Wir ham’ noch lange nicht genug”
PERFORMER “Boehse Onkelz”
INDEX 00 07:03:12
INDEX 01 07:04:37
TRACK 04 AUDIO
TITLE “Ich bin in dir”
PERFORMER “Boehse Onkelz”
INDEX 00 11:45:60
INDEX 01 11:47:12
TRACK 05 AUDIO
TITLE “Mexico”
PERFORMER “Boehse Onkelz”
INDEX 00 15:36:67
INDEX 01 15:38:12
TRACK 06 AUDIO
TITLE “Heilige Lieder”
PERFORMER “Boehse Onkelz”
INDEX 00 18:27:25
INDEX 01 18:28:50
TRACK 07 AUDIO
TITLE “Wenn wir einmal Engel sind”
PERFORMER “Boehse Onkelz”
INDEX 00 23:11:57
INDEX 01 23:13:12
TRACK 08 AUDIO
TITLE “Wieder mal ‘nen Tag verschenkt”
PERFORMER “Boehse Onkelz”
INDEX 00 27:10:70
INDEX 01 27:12:25
TRACK 09 AUDIO
TITLE “Scheissegal”
PERFORMER “Boehse Onkelz”
INDEX 00 31:16:70
INDEX 01 31:18:25
TRACK 10 AUDIO
TITLE “Schöne neue Welt”
PERFORMER “Boehse Onkelz”
INDEX 00 33:53:50
INDEX 01 33:55:00
TRACK 11 AUDIO
TITLE “Nur die besten sterben jung”
PERFORMER “Boehse Onkelz”
INDEX 00 38:30:35
INDEX 01 38:31:25
TRACK 12 AUDIO
TITLE “Ich lieb’ mich”
PERFORMER “Boehse Onkelz”
INDEX 00 42:26:65
INDEX 01 42:28:00
TRACK 13 AUDIO
TITLE “Erinnerungen”
PERFORMER “Boehse Onkelz”
INDEX 00 43:50:35
INDEX 01 43:51:62
TRACK 14 AUDIO
TITLE “Deutschland im Herbst”
PERFORMER “Boehse Onkelz”
INDEX 00 48:13:72
INDEX 01 48:15:00
TRACK 15 AUDIO
TITLE “Für immer”
PERFORMER “Boehse Onkelz”
INDEX 00 52:46:42
INDEX 01 52:48:00
TRACK 16 AUDIO
TITLE “Ich bin wie ich bin”
PERFORMER “Boehse Onkelz”
INDEX 00 58:23:32
INDEX 01 58:24:62
TRACK 17 AUDIO
TITLE “Die Boehsen Onkelz geben sich die Ehre”
PERFORMER “Boehse Onkelz”
INDEX 00 63:11:22
INDEX 01 63:12:50

REM GENRE Rock
REM DATE 1994
REM DISCID 2503AB04
REM COMMENT “ExactAudioCopy v0.99pb4”
PERFORMER “Boehse Onkelz”
TITLE “Gehasst, verdammt, vergoettert (CD2)”
FILE “Boehse Onkelz – Gehasst, verdammt, vergoettert (CD2).flac” WAVE
TRACK 01 AUDIO
TITLE “Worte der Freiheit”
PERFORMER “Boehse Onkelz”
INDEX 01 00:00:00
TRACK 02 AUDIO
TITLE “Nenn’ mich wie Du willst”
PERFORMER “Boehse Onkelz”
INDEX 00 05:39:27
INDEX 01 05:40:12
TRACK 03 AUDIO
TITLE “Entfache dieses Feuer”
PERFORMER “Boehse Onkelz”
INDEX 00 09:07:20
INDEX 01 09:08:50
TRACK 04 AUDIO
TITLE “Das ist mein Leben”
PERFORMER “Boehse Onkelz”
INDEX 00 12:22:07
INDEX 01 12:23:25


Spread the Download

Leave a Reply

Your email address will not be published. Required fields are marked *

Enter the text from the image below
 

This site uses Akismet to reduce spam. Learn how your comment data is processed.