Böhse Onkelz – Freitag Nacht – Mexico




Artist: Böhse Onkelz
Year: 1985
Genre: Punk
Notes: Discogs
Add. Notes:
Cover incl.: Yes
Encoder: FLAC
Bitrate: ~900 kBit/s (44.1 kHz/16 Bit/s)
Log & Cue incl.: Yes
Size: 283,02 MB
Password: “slam” (without ” “)


All Downloads/Hosters are compatible

Download 1
Turbobit.net
KatFile.com
Rapidgator.net
ddl.to
Download 2
Turbobit.net
KatFile.com
Rapidgator.net
ddl.to

Tracklist:

1 - Stolz - 2:31
2 - Freitag Nacht - 2:24
3 - Vereint - 2:58
4 - Freibier - 3:25
5 - Deutschland - 3:10
6 - Singen Und Tanzen - 2:31
7 - Tanz Auf Deinem Grab - 2:16
8 - Alkohol - 2:26
9 - Mexico - 4:16
10 - Das Tier In Mir - 4:08
11 - Stolz (Schnelle Version) - 2:42
12 - Stöckel & Strapse - 3:10
13 - In Jedem Arm Ne... - 4:24
14 - Gesetz Der Strasse - 4:01

EAC-Log, CUE-Sheed & NFO:

Click to open spoiler
Exact Audio Copy V0.99 prebeta 4 from 23. January 2008

Отчёт EAC об извлечении, выполненном 20. декабря 2008, 21:09

Boehse Onkelz / Freitag Nacht/Mexico

Дисковод: Optiarc DVD RW AD-7170A Adapter: 0 ID: 0

Режим чтения : Достоверность
Использование точного потока : Да
Отключение кэша аудио : Да
Использование указателей C2 : Нет

Коррекция смещения при чтении : 48
Способность читать области Lead-in и Lead-out : Нет
Заполнение пропущенных сэмплов тишиной : Да
Удаление блоков с тишиной в начале и конце : Нет
При вычислениях CRC использовались нулевые сэмплы : Да
Интерфейс : Встроенный Win32-интерфейс для Win NT/2000

Выходной формат : Пользовательский кодировщик
Выбранный битрейт : 1024 kBit/s
Качество : Высокий
Добавление ID3-тэга : Да
Утилита сжатия : C:\Program Files\Exact Audio Copy\FLAC\FLAC.EXE
Дополнительные параметры : -6 -V -T “ARTIST=%a” -T “TITLE=%t” -T “ALBUM=%g” -T “DATE=%y” -T “TRACKNUMBER=%n” -T “GENRE=%m” -T “COMMENT=%e” %s -o %d

TOC извлечённого CD

Трек | Старт | Длительность | Начальный сектор | Конечный сектор
———————————————————————
1 | 0:00.00 | 2:30.62 | 0 | 11311
2 | 2:30.62 | 2:23.25 | 11312 | 22061
3 | 4:54.12 | 2:59.13 | 22062 | 35499
4 | 7:53.25 | 3:24.50 | 35500 | 50849
5 | 11:18.00 | 3:09.62 | 50850 | 65086
6 | 14:27.62 | 2:31.63 | 65087 | 76474
7 | 16:59.50 | 2:15.50 | 76475 | 86649
8 | 19:15.25 | 2:24.25 | 86650 | 97474
9 | 21:39.50 | 4:16.37 | 97475 | 116711
10 | 25:56.12 | 4:08.13 | 116712 | 135324
11 | 30:04.25 | 2:41.37 | 135325 | 147436
12 | 32:45.62 | 3:09.63 | 147437 | 161674
13 | 35:55.50 | 4:24.12 | 161675 | 181486
14 | 40:19.62 | 4:00.48 | 181487 | 199534

Характеристики диапазона извлечения и сообщения об ошибках

Выбранный диапазон

Имя файла E:\BO\1985-Freitag Nacht – Mexico\Boehse Onkelz – Freitag Nacht Mexico.wav

Пиковый уровень 95.1 %
Качество диапазона 100.0 %
CRC копии 265A9FB2
Копирование… OK

Ошибок не произошло

Конец отчёта

REM DATE 1985
REM DISCID B80A640E
REM COMMENT “ExactAudioCopy v0.99pb4”
PERFORMER “Boehse Onkelz”
TITLE “Freitag Nacht/Mexico”
FILE “Boehse Onkelz – Freitag Nacht Mexico.flac” WAVE
TRACK 01 AUDIO
TITLE “Stolz”
PERFORMER “Boehse Onkelz”
INDEX 01 00:00:00
TRACK 02 AUDIO
TITLE “Freitag Nacht”
PERFORMER “Boehse Onkelz”
INDEX 00 02:29:13
INDEX 01 02:30:62
TRACK 03 AUDIO
TITLE “Vereint”
PERFORMER “Boehse Onkelz”
INDEX 00 04:52:29
INDEX 01 04:54:12
TRACK 04 AUDIO
TITLE “Freibier”
PERFORMER “Boehse Onkelz”
INDEX 00 07:51:41
INDEX 01 07:53:25
TRACK 05 AUDIO
TITLE “Deutschland”
PERFORMER “Boehse Onkelz”
INDEX 00 11:16:21
INDEX 01 11:18:00
TRACK 06 AUDIO
TITLE “Singen und Tanzen”
PERFORMER “Boehse Onkelz”
INDEX 00 14:26:06
INDEX 01 14:27:62
TRACK 07 AUDIO
TITLE “Tanz auf deinem Grab”
PERFORMER “Boehse Onkelz”
INDEX 00 16:58:01
INDEX 01 16:59:50
TRACK 08 AUDIO
TITLE “Alkohol”
PERFORMER “Boehse Onkelz”
INDEX 00 19:13:47
INDEX 01 19:15:25
TRACK 09 AUDIO
TITLE “Mexico”
PERFORMER “Boehse Onkelz”
INDEX 00 21:37:72
INDEX 01 21:39:50
TRACK 10 AUDIO
TITLE “Das Tier in mir”
PERFORMER “Boehse Onkelz”
INDEX 00 25:54:36
INDEX 01 25:56:12
TRACK 11 AUDIO
TITLE “Stolz (schnelle Version)”
PERFORMER “Boehse Onkelz”
INDEX 00 30:02:45
INDEX 01 30:04:25
TRACK 12 AUDIO
TITLE “Stöckel & Strapse”
PERFORMER “Boehse Onkelz”
INDEX 00 32:44:06
INDEX 01 32:45:62
TRACK 13 AUDIO
TITLE “In Jedem Arm ‘Ne…”
PERFORMER “Boehse Onkelz”
INDEX 00 35:54:03
INDEX 01 35:55:50
TRACK 14 AUDIO
TITLE “Gesetz Der Stasse”
PERFORMER “Boehse Onkelz”
INDEX 00 40:18:10
INDEX 01 40:19:62


Leave a Reply

Your email address will not be published. Required fields are marked *

Enter the text from the image below
 

This site uses Akismet to reduce spam. Learn how your comment data is processed.