Böhse Onkelz – Finde die Wahrheit




Artist: Böhse Onkelz
Year: 1995
Genre: Rock
Notes: Discogs
Add. Notes:
Cover incl.: Yes
Encoder: FLAC
Bitrate: ~1000 kBit/s (44.1 kHz/16 Bit/s)
Log & Cue incl.: Yes
Size: 101,16 MB
Password: “slam” (without ” “)


All Downloads/Hosters are compatible

Download 1
Turbobit.net
KatFile.com
Rapidgator.net
ddl.to
Download 2
Turbobit.net
KatFile.com
Rapidgator.net
ddl.to

Tracklist:

1 - Finde Die Wahrheit - 4:03
2 - Benutz Mich - 3:40
3 - Weiss - 4:42

EAC-Log, CUE-Sheed & NFO:

Click to open spoiler
Exact Audio Copy V0.99 prebeta 4 from 23. January 2008

Отчёт EAC об извлечении, выполненном 13. июля 2008, 13:41

Boehse Onkelz / Finde die Wahrheit

Дисковод: HL-DT-STDVDRAM GSA-4040B Adapter: 0 ID: 1

Режим чтения : Достоверность
Использование точного потока : Да
Отключение кэша аудио : Нет
Использование указателей C2 : Да

Комбинированное смещение чтения/записи : 0
Способность читать области Lead-in и Lead-out : Нет
Заполнение пропущенных сэмплов тишиной : Да
Удаление блоков с тишиной в начале и конце : Нет
При вычислениях CRC использовались нулевые сэмплы : Да
Интерфейс : Встроенный Win32-интерфейс для Win NT/2000

Выходной формат : Пользовательский кодировщик
Выбранный битрейт : 768 kBit/s
Качество : Высокий
Добавление ID3-тэга : Нет
Утилита сжатия : C:\Program Files\Exact Audio Copy\FLAC\FLAC.EXE
Дополнительные параметры : -6 -V -T “ARTIST=%a” -T “TITLE=%t” -T “ALBUM=%g” -T “DATE=%y” -T “TRACKNUMBER=%n” -T “GENRE=%m” -T “COMMENT=%e” %s -o %d

TOC извлечённого CD

Трек | Старт | Длительность | Начальный сектор | Конечный сектор
———————————————————————
1 | 0:00.32 | 4:05.38 | 32 | 18444
2 | 4:05.70 | 3:42.45 | 18445 | 35139
3 | 7:48.40 | 4:42.20 | 35140 | 56309

Характеристики диапазона извлечения и сообщения об ошибках

Выбранный диапазон

Имя файла D:\My torrents\Boehse_Onkelz_lossless2\1995-Finde die Wahrheit\Bцhse Onkelz – Finde die Wahrheit.wav

Пиковый уровень 99.1 %
Качество диапазона 100.0 %
CRC копии 852C3EB0
Копирование… OK

Ошибок не произошло

Конец отчёта

REM GENRE Rock
REM DATE 1995
REM DISCID 1A02EE03
REM COMMENT “ExactAudioCopy v0.99pb4”
PERFORMER “Boehse Onkelz”
TITLE “Finde die Wahrheit”
FILE “Böhse Onkelz – Finde die Wahrheit.flac” WAVE
TRACK 01 AUDIO
TITLE “Finde die Wahrheit”
PERFORMER “Boehse Onkelz”
INDEX 00 00:00:00
INDEX 01 00:00:32
TRACK 02 AUDIO
TITLE “Benutz´ mich”
PERFORMER “Boehse Onkelz”
INDEX 00 04:04:65
INDEX 01 04:05:70
TRACK 03 AUDIO
TITLE “Weiss”
PERFORMER “Boehse Onkelz”
INDEX 00 07:47:15
INDEX 01 07:48:40


Leave a Reply

Your email address will not be published. Required fields are marked *

Enter the text from the image below
 

This site uses Akismet to reduce spam. Learn how your comment data is processed.