Böhse Onkelz – Fanatorium (Bootleg)




Artist: Böhse Onkelz
Year: 1994
Genre: Rock
Notes: Discogs
Add. Notes: Bootleg
Cover incl.: Yes
Encoder: FLAC
Bitrate: ~700 kBit/s (44.1 kHz/16 Bit/s)
Log & Cue incl.: Yes
Size: 392,11 MB
Password: “slam” (without ” “)


All Downloads/Hosters are compatible

Download 1
Turbobit.net
KatFile.com
Rapidgator.net
ddl.to
Download 2
Turbobit.net
KatFile.com
Rapidgator.net
ddl.to

Tracklist:

1 - Intro (Henry Miller 1932) - 
2 - Lieber Stehend Sterben - 
3 - Heilige Lieder - 
4 - Buch Der Erinnerung - 
5 - Fahrt Zur Hölle - 
6 - Gehasst, Verdammt, Vergöttert - 
7 - Nur Die Besten Sterben Jung - 
8 - Scheißegal - 
9 - Intro Oratorium - 
10 - Wir Ham Noch Lange Nicht 
Genug - 
11 - Könige Für Einen Tag - 
12 - Lügenmarsch - 
13 - Benutz Mich - 
14 - Weiß - 
15 - Onkelz Wie Wir - 
16 - Keiner Wußte Wies Geschah - 
17 - Nennt Mich Gott

EAC-Log, CUE-Sheed & NFO:

Click to open spoiler
Exact Audio Copy V0.99 prebeta 4 from 23. January 2008

Отчёт EAC об извлечении, выполненном 21. декабря 2008, 10:06

Boehse Onkelz / Fanatorium 94

Дисковод: Optiarc DVD RW AD-7170A Adapter: 0 ID: 0

Режим чтения : Достоверность
Использование точного потока : Да
Отключение кэша аудио : Да
Использование указателей C2 : Нет

Коррекция смещения при чтении : 48
Способность читать области Lead-in и Lead-out : Нет
Заполнение пропущенных сэмплов тишиной : Да
Удаление блоков с тишиной в начале и конце : Нет
При вычислениях CRC использовались нулевые сэмплы : Да
Интерфейс : Встроенный Win32-интерфейс для Win NT/2000

Выходной формат : Пользовательский кодировщик
Выбранный битрейт : 1024 kBit/s
Качество : Высокий
Добавление ID3-тэга : Да
Утилита сжатия : C:\Program Files\Exact Audio Copy\FLAC\FLAC.EXE
Дополнительные параметры : -6 -V -T “ARTIST=%a” -T “TITLE=%t” -T “ALBUM=%g” -T “DATE=%y” -T “TRACKNUMBER=%n” -T “GENRE=%m” -T “COMMENT=%e” %s -o %d

TOC извлечённого CD

Трек | Старт | Длительность | Начальный сектор | Конечный сектор
———————————————————————
1 | 0:00.00 | 2:00.07 | 0 | 9006
2 | 2:00.07 | 3:41.53 | 9007 | 25634
3 | 5:41.60 | 4:42.52 | 25635 | 46836
4 | 10:24.37 | 3:34.18 | 46837 | 62904
5 | 13:58.55 | 3:36.30 | 62905 | 79134
6 | 17:35.10 | 3:20.05 | 79135 | 94139
7 | 20:55.15 | 4:21.15 | 94140 | 113729
8 | 25:16.30 | 2:26.70 | 113730 | 124749
9 | 27:43.25 | 0:36.20 | 124750 | 127469
10 | 28:19.45 | 4:02.55 | 127470 | 145674
11 | 32:22.25 | 4:07.25 | 145675 | 164224
12 | 36:29.50 | 4:25.00 | 164225 | 184099
13 | 40:54.50 | 3:42.50 | 184100 | 200799
14 | 44:37.25 | 4:43.25 | 200800 | 222049
15 | 49:20.50 | 4:30.20 | 222050 | 242319
16 | 53:50.70 | 3:42.22 | 242320 | 258991
17 | 57:33.17 | 17:27.08 | 258992 | 337524

Характеристики диапазона извлечения и сообщения об ошибках

Выбранный диапазон

Имя файла E:\BO\1994-Fanatorium 94 [Bootgleg]\Boehse Onkelz – Fanatorium 94.wav

Пиковый уровень 98.6 %
Качество диапазона 100.0 %
CRC копии DA7546C2
Копирование… OK

Ошибок не произошло

Конец отчёта

REM GENRE Rock
REM DATE 1994
REM DISCID E7119411
REM COMMENT “ExactAudioCopy v0.99pb4”
PERFORMER “Boehse Onkelz”
TITLE “Fanatorium 94”
FILE “Boehse Onkelz – Fanatorium 94.flac” WAVE
TRACK 01 AUDIO
TITLE “Intro”
PERFORMER “Boehse Onkelz”
FLAGS DCP
INDEX 01 00:00:00
TRACK 02 AUDIO
TITLE “Lieber stehend sterben”
PERFORMER “Boehse Onkelz”
FLAGS DCP
INDEX 01 02:00:07
TRACK 03 AUDIO
TITLE “Heilige Lieder”
PERFORMER “Boehse Onkelz”
FLAGS DCP
INDEX 01 05:41:60
TRACK 04 AUDIO
TITLE “Buch der Erinnerung”
PERFORMER “Boehse Onkelz”
FLAGS DCP
INDEX 01 10:24:37
TRACK 05 AUDIO
TITLE “Fahrt zur Hölle”
PERFORMER “Boehse Onkelz”
FLAGS DCP
INDEX 01 13:58:55
TRACK 06 AUDIO
TITLE “Gehasst, verdammt, vergöttert”
PERFORMER “Boehse Onkelz”
FLAGS DCP
INDEX 01 17:35:10
TRACK 07 AUDIO
TITLE “Nur die Besten sterben jung”
PERFORMER “Boehse Onkelz”
FLAGS DCP
INDEX 01 20:55:15
TRACK 08 AUDIO
TITLE “Scheißegal”
PERFORMER “Boehse Onkelz”
FLAGS DCP
INDEX 01 25:16:30
TRACK 09 AUDIO
TITLE “Intro Oratorium”
PERFORMER “Boehse Onkelz”
FLAGS DCP
INDEX 01 27:43:25
TRACK 10 AUDIO
TITLE “Wir ham’ noch lange nicht genug”
PERFORMER “Boehse Onkelz”
FLAGS DCP
INDEX 01 28:19:45
TRACK 11 AUDIO
TITLE “Könige für einen Tag”
PERFORMER “Boehse Onkelz”
FLAGS DCP
INDEX 01 32:22:25
TRACK 12 AUDIO
TITLE “Lügenmarsch”
PERFORMER “Boehse Onkelz”
FLAGS DCP
INDEX 01 36:29:50
TRACK 13 AUDIO
TITLE “Benutz’ mich”
PERFORMER “Boehse Onkelz”
FLAGS DCP
INDEX 01 40:54:50
TRACK 14 AUDIO
TITLE “Weiss”
PERFORMER “Boehse Onkelz”
FLAGS DCP
INDEX 01 44:37:25
TRACK 15 AUDIO
TITLE “Onkelz wie wir”
PERFORMER “Boehse Onkelz”
FLAGS DCP
INDEX 01 49:20:50
TRACK 16 AUDIO
TITLE “Keiner wußte wie’s geschah”
PERFORMER “Boehse Onkelz”
FLAGS DCP
INDEX 01 53:50:70
TRACK 17 AUDIO
TITLE “Nennt mich Gott”
PERFORMER “Boehse Onkelz”
FLAGS DCP
INDEX 01 57:33:17


Leave a Reply

Your email address will not be published. Required fields are marked *

This site uses Akismet to reduce spam. Learn how your comment data is processed.