Böhse Onkelz – Es ist soweit




Artist: Böhse Onkelz
Year: 1990
Genre: Rock
Notes: Discogs
Add. Notes:
Cover incl.: Yes
Encoder: FLAC
Bitrate: ~1100 kBit/s (44.1 kHz/16 Bit/s)
Log & Cue incl.: Yes
Size: 349,14 MB
Password: “slam” (without ” “)


All Downloads/Hosters are compatible

Download 1
Turbobit.net
KatFile.com
Rapidgator.net
ddl.to
Download 2
Turbobit.net
KatFile.com
Rapidgator.net
ddl.to

Tracklist:

1 - 10 Jahre - 4:13
2 - Nekrophil - 4:00
3 - Wilde Jungs - 4:09
4 - Nichts Ist Für Die Ewigkeit - 5:33
5 - Wenn Du Einsam Bist - 4:14
6 - Keine Ist Wie Du - 3:13
7 - Hast Du Sehnsucht Nach Der 
Nadel - 3:47
8 - Paradies - 3:37
9 - Das Leben Ist Ein Spiel - 4:00
10 - Es Ist Soweit - 4:46
11 - Leiden - 3:58

EAC-Log, CUE-Sheed & NFO:

Click to open spoiler
Exact Audio Copy V0.99 prebeta 4 from 23. January 2008

Отчёт EAC об извлечении, выполненном 8. мая 2008, 17:55

Boehse Onkelz / Es ist soweit

Дисковод: Optiarc DVD RW AD-7170A Adapter: 0 ID: 0

Режим чтения : Достоверность
Использование точного потока : Да
Отключение кэша аудио : Да
Использование указателей C2 : Нет

Коррекция смещения при чтении : 48
Способность читать области Lead-in и Lead-out : Нет
Заполнение пропущенных сэмплов тишиной : Да
Удаление блоков с тишиной в начале и конце : Нет
При вычислениях CRC использовались нулевые сэмплы : Да
Интерфейс : Встроенный Win32-интерфейс для Win NT/2000

Выходной формат : Пользовательский кодировщик
Выбранный битрейт : 768 kBit/s
Качество : Высокий
Добавление ID3-тэга : Нет
Утилита сжатия : C:\Program Files\Exact Audio Copy\FLAC\FLAC.EXE
Дополнительные параметры : -6 -V -T “ARTIST=%a” -T “TITLE=%t” -T “ALBUM=%g” -T “DATE=%y” -T “TRACKNUMBER=%n” -T “GENRE=%m” -T “COMMENT=%e” %s -o %d

TOC извлечённого CD

Трек | Старт | Длительность | Начальный сектор | Конечный сектор
———————————————————————
1 | 0:00.32 | 4:14.03 | 32 | 19084
2 | 4:14.35 | 4:00.50 | 19085 | 37134
3 | 8:15.10 | 4:09.65 | 37135 | 55874
4 | 12:25.00 | 5:33.12 | 55875 | 80861
5 | 17:58.12 | 4:13.70 | 80862 | 99906
6 | 22:12.07 | 3:13.25 | 99907 | 114406
7 | 25:25.32 | 3:47.65 | 114407 | 131496
8 | 29:13.22 | 3:37.13 | 131497 | 147784
9 | 32:50.35 | 4:00.62 | 147785 | 165846
10 | 36:51.22 | 4:46.25 | 165847 | 187321
11 | 41:37.47 | 3:58.10 | 187322 | 205181

Характеристики диапазона извлечения и сообщения об ошибках

Выбранный диапазон

Имя файла Q:\Boehse Onkelz\BO_-_5_albums\Es ist soweit (1990)\Boehse Onkelz – Es ist soweit.wav

Пиковый уровень 100.0 %
Качество диапазона 100.0 %
CRC копии C8AB5646
Копирование… OK

Ошибок не произошло

AccurateRip: сводка

Трек 1 точное извлечение (доверие 2) [BBFF86BA]
Трек 2 точное извлечение (доверие 2) [BA089030]
Трек 3 точное извлечение (доверие 2) [080A0AAE]
Трек 4 точное извлечение (доверие 2) [D6505596]
Трек 5 точное извлечение (доверие 2) [A468C612]
Трек 6 точное извлечение (доверие 2) [BF8851AF]
Трек 7 точное извлечение (доверие 2) [D8A71755]
Трек 8 точное извлечение (доверие 2) [E88DACB8]
Трек 9 точное извлечение (доверие 2) [9FAF0415]
Трек 10 точное извлечение (доверие 2) [85E80B10]
Трек 11 точное извлечение (доверие 2) [83A70835]

Все треки извлечены точно

Конец отчёта

REM GENRE “Hard Rock”
REM DATE 1990
REM DISCID 9D0AAF0B
REM COMMENT “ExactAudioCopy v0.99pb4”
PERFORMER “Boehse Onkelz”
TITLE “Es ist soweit”
FILE “Boehse Onkelz – Es ist soweit.flac” WAVE
TRACK 01 AUDIO
TITLE “10 Jahre”
PERFORMER “Boehse Onkelz”
INDEX 00 00:00:00
INDEX 01 00:00:32
TRACK 02 AUDIO
TITLE “Nekrophil”
PERFORMER “Boehse Onkelz”
INDEX 00 04:12:42
INDEX 01 04:14:35
TRACK 03 AUDIO
TITLE “Wilde Jungs”
PERFORMER “Boehse Onkelz”
INDEX 00 08:13:17
INDEX 01 08:15:10
TRACK 04 AUDIO
TITLE “Nichts ist für die Ewigkeit”
PERFORMER “Boehse Onkelz”
INDEX 00 12:23:10
INDEX 01 12:25:00
TRACK 05 AUDIO
TITLE “Wenn Du einsam bist”
PERFORMER “Boehse Onkelz”
INDEX 00 17:56:35
INDEX 01 17:58:12
TRACK 06 AUDIO
TITLE “Keine ist wie Du”
PERFORMER “Boehse Onkelz”
INDEX 00 22:10:10
INDEX 01 22:12:07
TRACK 07 AUDIO
TITLE “Hast Du Sehnsucht nach der Nadel”
PERFORMER “Boehse Onkelz”
INDEX 00 25:23:67
INDEX 01 25:25:32
TRACK 08 AUDIO
TITLE “Paradies”
PERFORMER “Boehse Onkelz”
INDEX 00 29:11:35
INDEX 01 29:13:22
TRACK 09 AUDIO
TITLE “Das Leben ist ein Spiel”
PERFORMER “Boehse Onkelz”
INDEX 00 32:48:40
INDEX 01 32:50:35
TRACK 10 AUDIO
TITLE “Es ist soweit”
PERFORMER “Boehse Onkelz”
INDEX 00 36:49:30
INDEX 01 36:51:22
TRACK 11 AUDIO
TITLE “Leiden”
PERFORMER “Boehse Onkelz”
INDEX 00 41:35:55
INDEX 01 41:37:47


Leave a Reply

Your email address will not be published. Required fields are marked *

This site uses Akismet to reduce spam. Learn how your comment data is processed.