Böhse Onkelz – Ein Böses Märchen




Artist: Böhse Onkelz
Year: 2000
Genre: Rock
Notes: Discogs
Add. Notes:
Cover incl.: No
Encoder: FLAC
Bitrate: ~1000 kBit/s (44.1 kHz/16 Bit/s)
Log & Cue incl.: Yes
Size: 390,93 MB
Password: “slam” (without ” “)


All Downloads/Hosters are compatible

Download 1
Turbobit.net
KatFile.com
Rapidgator.net
ddl.to
Download 2
Turbobit.net
KatFile.com
Rapidgator.net
ddl.to

Tracklist:

1 - Onkelz 2000 - 4:12
2 - Dunkler Ort - 4:13
3 - Exitus - 3:53
4 - Schutzgeist Der Scheisse - 4:47
5 - Lüge - 3:43
6 - Knast - 5:44
7 - Cest La Vie - 4:24
8 - Danke - 3:22
9 - Es Ist Wie Es Ist - 2:54
10 - Zuviel - 5:11
11 - Gesichter Des Todes - 4:34
12 - Panamericana - 6:12

EAC-Log, CUE-Sheed & NFO:

Click to open spoiler
Exact Audio Copy V0.99 prebeta 4 from 23. January 2008

Отчёт EAC об извлечении, выполненном 17. июня 2008, 10:50

Boehse Onkelz / Ein Boeses Maerchen

Дисковод: Optiarc DVD RW AD-7170A Adapter: 0 ID: 0

Режим чтения : Достоверность
Использование точного потока : Да
Отключение кэша аудио : Да
Использование указателей C2 : Нет

Коррекция смещения при чтении : 48
Способность читать области Lead-in и Lead-out : Нет
Заполнение пропущенных сэмплов тишиной : Да
Удаление блоков с тишиной в начале и конце : Нет
При вычислениях CRC использовались нулевые сэмплы : Да
Интерфейс : Встроенный Win32-интерфейс для Win NT/2000

Выходной формат : Пользовательский кодировщик
Выбранный битрейт : 768 kBit/s
Качество : Высокий
Добавление ID3-тэга : Нет
Утилита сжатия : C:\Program Files\Exact Audio Copy\FLAC\FLAC.EXE
Дополнительные параметры : -6 -V -T “ARTIST=%a” -T “TITLE=%t” -T “ALBUM=%g” -T “DATE=%y” -T “TRACKNUMBER=%n” -T “GENRE=%m” -T “COMMENT=%e” %s -o %d

TOC извлечённого CD

Трек | Старт | Длительность | Начальный сектор | Конечный сектор
———————————————————————
1 | 0:00.32 | 4:12.33 | 32 | 18964
2 | 4:12.65 | 4:13.40 | 18965 | 37979
3 | 8:26.30 | 3:54.52 | 37980 | 55581
4 | 12:21.07 | 4:47.58 | 55582 | 77164
5 | 17:08.65 | 3:44.07 | 77165 | 93971
6 | 20:52.72 | 5:44.68 | 93972 | 119839
7 | 26:37.65 | 4:25.05 | 119840 | 139719
8 | 31:02.70 | 3:23.12 | 139720 | 154956
9 | 34:26.07 | 2:55.38 | 154957 | 168119
10 | 37:21.45 | 5:12.62 | 168120 | 191581
11 | 42:34.32 | 4:37.00 | 191582 | 212356
12 | 47:11.32 | 6:12.38 | 212357 | 240294

Характеристики диапазона извлечения и сообщения об ошибках

Выбранный диапазон

Имя файла D:\My torrents\Boehse_Onkelz_lossless\2000-Ein Boeses Maerchen\Boehse Onkelz – Ein Boeses Maerchen.wav

Пиковый уровень 99.9 %
Качество диапазона 100.0 %
CRC копии 539CE86F
Копирование… OK

Ошибок не произошло

AccurateRip: сводка

Трек 1 точное извлечение (доверие 10) [2F03D88F]
Трек 2 точное извлечение (доверие 9) [53CB1C15]
Трек 3 точное извлечение (доверие 10) [61F8AB3E]
Трек 4 точное извлечение (доверие 10) [73F90496]
Трек 5 точное извлечение (доверие 10) [D492FC69]
Трек 6 точное извлечение (доверие 10) [A7AC680D]
Трек 7 точное извлечение (доверие 10) [7C5AC7AF]
Трек 8 точное извлечение (доверие 10) [F8A8333B]
Трек 9 точное извлечение (доверие 10) [45176321]
Трек 10 точное извлечение (доверие 9) [1DBA517E]
Трек 11 точное извлечение (доверие 9) [E2C8B5D5]
Трек 12 точное извлечение (доверие 9) [006D9C5D]

Все треки извлечены точно

Конец отчёта

REM GENRE Rock
REM DATE 2000
REM DISCID A00C830C
REM COMMENT “ExactAudioCopy v0.99pb4”
PERFORMER “Boehse Onkelz”
TITLE “Ein Boeses Maerchen”
FILE “Boehse Onkelz – Ein Boeses Maerchen.flac” WAVE
TRACK 01 AUDIO
TITLE “Onkelz 2000”
PERFORMER “Boehse Onkelz”
INDEX 00 00:00:00
INDEX 01 00:00:32
TRACK 02 AUDIO
TITLE “Dunkler Ort”
PERFORMER “Boehse Onkelz”
INDEX 00 04:12:52
INDEX 01 04:12:65
TRACK 03 AUDIO
TITLE “Exitus”
PERFORMER “Boehse Onkelz”
INDEX 01 08:26:30
TRACK 04 AUDIO
TITLE “Schutzgeist der Scheisse”
PERFORMER “Boehse Onkelz”
INDEX 00 12:19:60
INDEX 01 12:21:07
TRACK 05 AUDIO
TITLE “Lüge”
PERFORMER “Boehse Onkelz”
INDEX 00 17:08:22
INDEX 01 17:08:65
TRACK 06 AUDIO
TITLE “Knast”
PERFORMER “Boehse Onkelz”
INDEX 00 20:52:00
INDEX 01 20:52:72
TRACK 07 AUDIO
TITLE “C’est la vie”
PERFORMER “Boehse Onkelz”
INDEX 00 26:37:12
INDEX 01 26:37:65
TRACK 08 AUDIO
TITLE “Danke”
PERFORMER “Boehse Onkelz”
INDEX 00 31:02:02
INDEX 01 31:02:70
TRACK 09 AUDIO
TITLE “Es ist wie es ist”
PERFORMER “Boehse Onkelz”
INDEX 00 34:25:25
INDEX 01 34:26:07
TRACK 10 AUDIO
TITLE “Zuviel”
PERFORMER “Boehse Onkelz”
INDEX 00 37:20:27
INDEX 01 37:21:45
TRACK 11 AUDIO
TITLE “Gesichter des Todes”
PERFORMER “Boehse Onkelz”
INDEX 00 42:32:65
INDEX 01 42:34:32
TRACK 12 AUDIO
TITLE “Panamericana”
PERFORMER “Boehse Onkelz”
INDEX 00 47:08:72
INDEX 01 47:11:32


Leave a Reply

Your email address will not be published. Required fields are marked *

This site uses Akismet to reduce spam. Learn how your comment data is processed.