Böhse Onkelz – E.I.N.S




Artist: Böhse Onkelz
Year: 1996
Genre: Rock
Notes: Discogs
Add. Notes:
Cover incl.: Yes
Encoder: FLAC
Bitrate: ~1000 kBit/s (44.1 kHz/16 Bit/s)
Log & Cue incl.: Yes
Size: 485,15 MB
Password: “slam” (without ” “)


All Downloads/Hosters are compatible

Download 1
Turbobit.net
KatFile.com
Rapidgator.net
ddl.to
Download 2
Turbobit.net
KatFile.com
Rapidgator.net
ddl.to

Tracklist:

1 - Danket Dem Herrn - 4:04
2 - Nichts Ist So Hart Wie Das Leben - 3:43
3 - Wie Tief Willst Du Noch Sinken - 5:13
4 - Ihr Sollt Den Tag Nicht Vor Dem Abend Loben - 4:19
5 - Zu Nah An Der Wahrheit - 6:19
6 - Meister Der Lügen - 4:21
7 - Kirche - 5:37
8 - Flammen - 4:14
9 - Koma - Eine Nacht, Die Niemals Endet - 4:57
10 - Auf Gute Freunde - 5:17
11 - Regen - 8:41
12 - Zeit Zu Gehn - 3:47
13 - Enie Tfahcstob Rüf Ediona-rap - 3:47

EAC-Log, CUE-Sheed & NFO:

Click to open spoiler
Exact Audio Copy V0.99 prebeta 4 from 23. January 2008

Отчёт EAC об извлечении, выполненном 4. мая 2008, 17:31

Boehse Onkelz / E.I.N.S.

Дисковод: Optiarc DVD RW AD-7170A Adapter: 0 ID: 0

Режим чтения : Достоверность
Использование точного потока : Да
Отключение кэша аудио : Да
Использование указателей C2 : Нет

Коррекция смещения при чтении : 48
Способность читать области Lead-in и Lead-out : Нет
Заполнение пропущенных сэмплов тишиной : Да
Удаление блоков с тишиной в начале и конце : Нет
При вычислениях CRC использовались нулевые сэмплы : Да
Интерфейс : Встроенный Win32-интерфейс для Win NT/2000

Выходной формат : Пользовательский кодировщик
Выбранный битрейт : 768 kBit/s
Качество : Высокий
Добавление ID3-тэга : Нет
Утилита сжатия : C:\Program Files\Exact Audio Copy\FLAC\FLAC.EXE
Дополнительные параметры : -6 -V -T “ARTIST=%a” -T “TITLE=%t” -T “ALBUM=%g” -T “DATE=%y” -T “TRACKNUMBER=%n” -T “GENRE=%m” -T “COMMENT=%e” %s -o %d

TOC извлечённого CD

Трек | Старт | Длительность | Начальный сектор | Конечный сектор
———————————————————————
1 | 0:00.32 | 4:04.53 | 32 | 18384
2 | 4:05.10 | 3:43.40 | 18385 | 35149
3 | 7:48.50 | 5:13.57 | 35150 | 58681
4 | 13:02.32 | 4:19.35 | 58682 | 78141
5 | 17:21.67 | 6:19.15 | 78142 | 106581
6 | 23:41.07 | 4:21.65 | 106582 | 126221
7 | 28:02.72 | 5:37.10 | 126222 | 151506
8 | 33:40.07 | 4:14.25 | 151507 | 170581
9 | 37:54.32 | 4:57.13 | 170582 | 192869
10 | 42:51.45 | 5:17.62 | 192870 | 216706
11 | 48:09.32 | 8:41.18 | 216707 | 255799
12 | 56:50.50 | 3:47.25 | 255800 | 272849
13 | 60:38.00 | 3:47.70 | 272850 | 289944

Характеристики диапазона извлечения и сообщения об ошибках

Выбранный диапазон

Имя файла Q:\Boehse Onkelz – E.I.wav

Пиковый уровень 99.0 %
Качество диапазона 99.9 %
CRC копии 8D08A931
Копирование… OK

Ошибок не произошло

AccurateRip: сводка

Трек 1 точное извлечение (доверие 17) [E668AF76]
Трек 2 точное извлечение (доверие 17) [63D3BD3C]
Трек 3 точное извлечение (доверие 17) [3C48DCEC]
Трек 4 точное извлечение (доверие 17) [C56FE2BE]
Трек 5 точное извлечение (доверие 16) [444F9858]
Трек 6 точное извлечение (доверие 17) [8AB203EA]
Трек 7 точное извлечение (доверие 17) [69816020]
Трек 8 точное извлечение (доверие 17) [20F4C9BE]
Трек 9 точное извлечение (доверие 17) [0FEDDC97]
Трек 10 точное извлечение (доверие 19) [DC2FC561]
Трек 11 точное извлечение (доверие 17) [E62F6CC1]
Трек 12 точное извлечение (доверие 17) [17D023AA]
Трек 13 точное извлечение (доверие 19) [83E902D0]

Все треки извлечены точно

Конец отчёта

REM GENRE “Oi! Punk”
REM DATE 1996
REM DISCID A50F190D
REM COMMENT “ExactAudioCopy v0.99pb4”
PERFORMER “Boehse Onkelz”
TITLE “E.I.N.S.”
FILE “Boehse Onkelz – E.I.N.S.” WAVE
TRACK 01 AUDIO
TITLE “Danket dem Herrn”
PERFORMER “Boehse Onkelz”
INDEX 00 00:00:00
INDEX 01 00:00:32
TRACK 02 AUDIO
TITLE “Nichts ist so hart wie das Leben”
PERFORMER “Boehse Onkelz”
INDEX 00 04:04:47
INDEX 01 04:05:10
TRACK 03 AUDIO
TITLE “Wie tief willst du noch sinken?”
PERFORMER “Boehse Onkelz”
INDEX 00 07:47:67
INDEX 01 07:48:50
TRACK 04 AUDIO
TITLE “Ihr sollt den Tag nicht vor dem Abend loben”
PERFORMER “Boehse Onkelz”
INDEX 00 13:01:35
INDEX 01 13:02:32
TRACK 05 AUDIO
TITLE “Zu nah an der Wahrheit”
PERFORMER “Boehse Onkelz”
INDEX 00 17:21:10
INDEX 01 17:21:67
TRACK 06 AUDIO
TITLE “Meister der Luegen”
PERFORMER “Boehse Onkelz”
INDEX 00 23:40:20
INDEX 01 23:41:07
TRACK 07 AUDIO
TITLE “Kirche”
PERFORMER “Boehse Onkelz”
INDEX 00 28:02:27
INDEX 01 28:02:72
TRACK 08 AUDIO
TITLE “Flammen”
PERFORMER “Boehse Onkelz”
INDEX 00 33:39:12
INDEX 01 33:40:07
TRACK 09 AUDIO
TITLE “Koma (eine Nacht, die niemals endet)”
PERFORMER “Boehse Onkelz”
INDEX 00 37:53:22
INDEX 01 37:54:32
TRACK 10 AUDIO
TITLE “Auf gute Freunde”
PERFORMER “Boehse Onkelz”
INDEX 00 42:50:67
INDEX 01 42:51:45
TRACK 11 AUDIO
TITLE “Regen”
PERFORMER “Boehse Onkelz”
INDEX 01 48:09:32
TRACK 12 AUDIO
TITLE “Zeit zu gehn”
PERFORMER “Boehse Onkelz”
INDEX 00 56:49:55
INDEX 01 56:50:50
TRACK 13 AUDIO
TITLE “Enie Tfahcstob ruef Ediona-rap”
PERFORMER “Boehse Onkelz”
INDEX 00 60:37:35
INDEX 01 60:38:00


Leave a Reply

Your email address will not be published. Required fields are marked *

This site uses Akismet to reduce spam. Learn how your comment data is processed.