Böhse Onkelz – Dopamin




Artist: Böhse Onkelz
Year: 2002
Genre: Rock
Notes: Discogs
Add. Notes:
Cover incl.: Yes
Encoder: FLAC
Bitrate: ~1000 kBit/s (44.1 kHz/16 Bit/s)
Log & Cue incl.: Yes
Size: 353,37 MB
Password: “slam” (without ” “)


All Downloads/Hosters are compatible

Download 1
Turbobit.net
KatFile.com
Rapidgator.net
ddl.to
Download 2
Turbobit.net
KatFile.com
Rapidgator.net
ddl.to

Tracklist:

1 - Die Firma - 4:18
2 - Narben - 4:20
3 - Macht Für Den Der Sie Nicht Will - 4:33
4 - Mutier Mit Mir - 4:08
5 - Keine Amnestie Für MTV - 3:04
6 - Wie Kann Das Sein - 3:15
7 - Nr. 1 - 3:53
8 - Stand Der Dinge - 5:11
9 - Ich Weiss Wo Du Wohnst - 2:30
10 - Keine Zeit - 3:15
11 - Jetzt Oder Nie - 4:00
12 - Nur Wenn Ich Besoffen Bin - 3:51

EAC-Log, CUE-Sheed & NFO:

Click to open spoiler
Exact Audio Copy V0.99 prebeta 4 from 23. January 2008

Отчёт EAC об извлечении, выполненном 8. мая 2008, 18:09

Boehse Onkelz / Dopamin

Дисковод: Optiarc DVD RW AD-7170A Adapter: 0 ID: 0

Режим чтения : Достоверность
Использование точного потока : Да
Отключение кэша аудио : Да
Использование указателей C2 : Нет

Коррекция смещения при чтении : 48
Способность читать области Lead-in и Lead-out : Нет
Заполнение пропущенных сэмплов тишиной : Да
Удаление блоков с тишиной в начале и конце : Нет
При вычислениях CRC использовались нулевые сэмплы : Да
Интерфейс : Встроенный Win32-интерфейс для Win NT/2000

Выходной формат : Пользовательский кодировщик
Выбранный битрейт : 768 kBit/s
Качество : Высокий
Добавление ID3-тэга : Нет
Утилита сжатия : C:\Program Files\Exact Audio Copy\FLAC\FLAC.EXE
Дополнительные параметры : -6 -V -T “ARTIST=%a” -T “TITLE=%t” -T “ALBUM=%g” -T “DATE=%y” -T “TRACKNUMBER=%n” -T “GENRE=%m” -T “COMMENT=%e” %s -o %d

TOC извлечённого CD

Трек | Старт | Длительность | Начальный сектор | Конечный сектор
———————————————————————
1 | 0:00.00 | 4:18.38 | 0 | 19387
2 | 4:18.38 | 4:20.46 | 19388 | 38933
3 | 8:39.09 | 4:32.18 | 38934 | 59351
4 | 13:11.27 | 4:09.20 | 59352 | 78046
5 | 17:20.47 | 3:05.06 | 78047 | 91927
6 | 20:25.53 | 3:15.54 | 91928 | 106606
7 | 23:41.32 | 3:53.25 | 106607 | 124106
8 | 27:34.57 | 5:12.50 | 124107 | 147556
9 | 32:47.32 | 2:30.54 | 147557 | 158860
10 | 35:18.11 | 3:15.21 | 158861 | 173506
11 | 38:33.32 | 4:01.07 | 173507 | 191588
12 | 42:34.39 | 3:52.45 | 191589 | 209033

Характеристики диапазона извлечения и сообщения об ошибках

Выбранный диапазон

Имя файла D:\My torrents\Boehse Onkelz\BO_-_5_albums\Dopamin (2002)\Boehse Onkelz – Dopamin.wav

Пиковый уровень 99.9 %
Качество диапазона 100.0 %
CRC копии FF265239
Копирование… OK

Ошибок не произошло

AccurateRip: сводка

Трек 1 точное извлечение (доверие 10) [09A1D781]
Трек 2 точное извлечение (доверие 10) [D44B5193]
Трек 3 точное извлечение (доверие 11) [5BD7F38E]
Трек 4 точное извлечение (доверие 10) [B7E7CC8E]
Трек 5 точное извлечение (доверие 10) [5289607E]
Трек 6 точное извлечение (доверие 10) [58BE3309]
Трек 7 точное извлечение (доверие 10) [700E1E99]
Трек 8 точное извлечение (доверие 10) [331B3E65]
Трек 9 точное извлечение (доверие 10) [36D51801]
Трек 10 точное извлечение (доверие 10) [A15B0098]
Трек 11 точное извлечение (доверие 10) [BEA505BE]
Трек 12 точное извлечение (доверие 11) [90DE50DC]

Все треки извлечены точно

Конец отчёта

————————-

REM GENRE “Heavy Metal”
REM DATE 2002
REM DISCID 8F0AE30C
REM COMMENT “ExactAudioCopy v0.99pb4”
PERFORMER “Boehse Onkelz”
TITLE “Dopamin”
FILE “Boehse Onkelz – Dopamin.flac” WAVE
TRACK 01 AUDIO
TITLE “Die Firma”
PERFORMER “Boehse Onkelz”
INDEX 01 00:00:00
TRACK 02 AUDIO
TITLE “Narben”
PERFORMER “Boehse Onkelz”
INDEX 00 04:18:33
INDEX 01 04:18:38
TRACK 03 AUDIO
TITLE “Macht fuer den der sie nicht will”
PERFORMER “Boehse Onkelz”
INDEX 00 08:38:08
INDEX 01 08:39:09
TRACK 04 AUDIO
TITLE “Mutier mit mir”
PERFORMER “Boehse Onkelz”
INDEX 00 13:11:19
INDEX 01 13:11:27
TRACK 05 AUDIO
TITLE “Keine Amnestie für MTV”
PERFORMER “Boehse Onkelz”
INDEX 00 17:19:44
INDEX 01 17:20:47
TRACK 06 AUDIO
TITLE “Wie kann das sein”
PERFORMER “Boehse Onkelz”
INDEX 00 20:24:49
INDEX 01 20:25:53
TRACK 07 AUDIO
TITLE “Nr.1”
PERFORMER “Boehse Onkelz”
INDEX 00 23:40:30
INDEX 01 23:41:32
TRACK 08 AUDIO
TITLE “Stand der Dinge”
PERFORMER “Boehse Onkelz”
INDEX 00 27:33:70
INDEX 01 27:34:57
TRACK 09 AUDIO
TITLE “Ich weiss wo Du wohnst”
PERFORMER “Boehse Onkelz”
INDEX 00 32:46:19
INDEX 01 32:47:32
TRACK 10 AUDIO
TITLE “Keine Zeit”
PERFORMER “Boehse Onkelz”
INDEX 00 35:17:50
INDEX 01 35:18:11
TRACK 11 AUDIO
TITLE “Jetzt oder nie”
PERFORMER “Boehse Onkelz”
INDEX 00 38:32:31
INDEX 01 38:33:32
TRACK 12 AUDIO
TITLE “Nur wenn ich besoffen bin”
PERFORMER “Boehse Onkelz”
INDEX 00 42:33:44
INDEX 01 42:34:39


Leave a Reply

Your email address will not be published. Required fields are marked *

This site uses Akismet to reduce spam. Learn how your comment data is processed.