Böhse Onkelz – Der Nette Mann + Demos




Artist: Böhse Onkelz
Year: 1984
Genre: Rock
Notes: Discogs
Add. Notes:
Encoder: FLAC
Bitrate: ~800 kBit/s (VBR)
Size: 420,34 MB
Password: “slam” (without ” “)


Crypted via FileCrypt.cc:

.

Crypted via Relink.to:

Tracklist:

Der Nette Mann
1 - Frankreich '84 - 2:35
2 - Fussball + Gewalt - 3:20
3 - Der Nette Mann - 2:55
4 - Deutschland - 3:08
5 - Singen Und Tanzen - 2:29
6 - Mädchen - 2:20
7 - Tanz Auf Deinem Grab - 2:12
8 - Dr. Martens Beat - 2:02
9 - Vereint - 2:58
10 - Freibier - 3:21
11 - Stolz - 2:28
12 - Freitag Nacht - 2:23
13 - Böhse Onkelz - 2:31
14 - Alkohol - 2:20
Demos
15 - Bullenschwein - 4:32
16 - Neue Welle - 2:33
17 - Udo Baumann - 1:42
18 - Böhse Onkelz - 2:36
19 - Deutschland - 2:17
20 - Skinhead - 2:28
21 - Mädchen - 1:58
22 - Freitag Nacht - 2:37
23 - Hippies - 1:40
24 - Religion - 1:44
25 - Stolz - 2:42
26 - Idiot - 3:53
27 - Oi Oi Oi - 1:24
28 - Mexico '86 (Live) - 2:29

EAC-Log, CUE-Sheed & NFO:

Click to open spoiler
Exact Audio Copy V0.99 prebeta 4 from 23. January 2008

Отчёт EAC об извлечении, выполненном 20. декабря 2008, 19:00

Boehse Onkelz / Der nette Mann + Demos

Дисковод: Optiarc DVD RW AD-7170A Adapter: 0 ID: 0

Режим чтения : Достоверность
Использование точного потока : Да
Отключение кэша аудио : Да
Использование указателей C2 : Нет

Коррекция смещения при чтении : 48
Способность читать области Lead-in и Lead-out : Нет
Заполнение пропущенных сэмплов тишиной : Да
Удаление блоков с тишиной в начале и конце : Нет
При вычислениях CRC использовались нулевые сэмплы : Да
Интерфейс : Встроенный Win32-интерфейс для Win NT/2000

Выходной формат : Пользовательский кодировщик
Выбранный битрейт : 1024 kBit/s
Качество : Высокий
Добавление ID3-тэга : Да
Утилита сжатия : C:\Program Files\Exact Audio Copy\FLAC\FLAC.EXE
Дополнительные параметры : -6 -V -T “ARTIST=%a” -T “TITLE=%t” -T “ALBUM=%g” -T “DATE=%y” -T “TRACKNUMBER=%n” -T “GENRE=%m” -T “COMMENT=%e” %s -o %d

TOC извлечённого CD

Трек | Старт | Длительность | Начальный сектор | Конечный сектор
———————————————————————
1 | 0:00.00 | 2:37.57 | 0 | 11831
2 | 2:37.57 | 3:19.55 | 11832 | 26811
3 | 5:57.37 | 2:55.63 | 26812 | 39999
4 | 8:53.25 | 3:09.17 | 40000 | 54191
5 | 12:02.42 | 2:29.63 | 54192 | 65429
6 | 14:32.30 | 2:19.72 | 65430 | 75926
7 | 16:52.27 | 2:12.15 | 75927 | 85841
8 | 19:04.42 | 2:02.58 | 85842 | 95049
9 | 21:07.25 | 2:57.02 | 95050 | 108326
10 | 24:04.27 | 3:24.43 | 108327 | 123669
11 | 27:28.70 | 2:29.42 | 123670 | 134886
12 | 29:58.37 | 2:21.20 | 134887 | 145481
13 | 32:19.57 | 2:32.40 | 145482 | 156921
14 | 34:52.22 | 2:19.40 | 156922 | 167386
15 | 37:11.62 | 4:28.23 | 167387 | 187509
16 | 41:40.10 | 2:32.72 | 187510 | 198981
17 | 44:13.07 | 1:41.25 | 198982 | 206581
18 | 45:54.32 | 2:36.18 | 206582 | 218299
19 | 48:30.50 | 2:17.45 | 218300 | 228619
20 | 50:48.20 | 2:31.55 | 228620 | 239999
21 | 53:20.00 | 1:54.50 | 240000 | 248599
22 | 55:14.50 | 2:37.00 | 248600 | 260374
23 | 57:51.50 | 1:40.25 | 260375 | 267899
24 | 59:32.00 | 1:45.00 | 267900 | 275774
25 | 61:17.00 | 2:39.70 | 275775 | 287769
26 | 63:56.70 | 3:52.65 | 287770 | 305234
27 | 67:49.60 | 1:26.07 | 305235 | 311691
28 | 69:15.67 | 2:27.28 | 311692 | 322744

Характеристики диапазона извлечения и сообщения об ошибках

Выбранный диапазон

Имя файла E:\BO\1984-Der nette Mann + Demos\Boehse Onkelz – Der nette Mann + Demos.wav

Пиковый уровень 100.0 %
Качество диапазона 100.0 %
CRC копии DD9FC870
Копирование… OK

Ошибок не произошло

Конец отчёта

REM GENRE Rock
REM DATE 1984
REM DISCID 8910CF1C
REM COMMENT “ExactAudioCopy v0.99pb4”
PERFORMER “Boehse Onkelz”
TITLE “Der nette Mann + Demos”
FILE “Boehse Onkelz – Der nette Mann + Demos.flac” WAVE
TRACK 01 AUDIO
TITLE “Frankreich ’84”
PERFORMER “Boehse Onkelz”
INDEX 01 00:00:00
TRACK 02 AUDIO
TITLE “Fußball + Gewalt”
PERFORMER “Boehse Onkelz”
INDEX 01 02:37:57
TRACK 03 AUDIO
TITLE “Der nette Mann”
PERFORMER “Boehse Onkelz”
INDEX 01 05:57:37
TRACK 04 AUDIO
TITLE “Deutschland”
PERFORMER “Boehse Onkelz”
INDEX 01 08:53:25
TRACK 05 AUDIO
TITLE “Singen und tanzen”
PERFORMER “Boehse Onkelz”
INDEX 01 12:02:42
TRACK 06 AUDIO
TITLE “Mädchen”
PERFORMER “Boehse Onkelz”
INDEX 01 14:32:30
TRACK 07 AUDIO
TITLE “Tanz auf deinem Grab”
PERFORMER “Boehse Onkelz”
INDEX 01 16:52:27
TRACK 08 AUDIO
TITLE “Dr. Martens Beat”
PERFORMER “Boehse Onkelz”
INDEX 01 19:04:42
TRACK 09 AUDIO
TITLE “Vereint”
PERFORMER “Boehse Onkelz”
INDEX 01 21:07:25
TRACK 10 AUDIO
TITLE “Freibier”
PERFORMER “Boehse Onkelz”
INDEX 01 24:04:27
TRACK 11 AUDIO
TITLE “Stolz”
PERFORMER “Boehse Onkelz”
INDEX 01 27:28:70
TRACK 12 AUDIO
TITLE “Freitag Nacht”
PERFORMER “Boehse Onkelz”
INDEX 01 29:58:37
TRACK 13 AUDIO
TITLE “Böhse Onkelz”
PERFORMER “Boehse Onkelz”
INDEX 01 32:19:57
TRACK 14 AUDIO
TITLE “Alkohol”
PERFORMER “Boehse Onkelz”
INDEX 01 34:52:22
TRACK 15 AUDIO
TITLE “Bullenschwein (Demo)”
PERFORMER “Boehse Onkelz”
INDEX 01 37:11:62
TRACK 16 AUDIO
TITLE “Neue Welle (Demo)”
PERFORMER “Boehse Onkelz”
INDEX 01 41:40:10
TRACK 17 AUDIO
TITLE “Udo Baumann (Demo)”
PERFORMER “Boehse Onkelz”
INDEX 01 44:13:07
TRACK 18 AUDIO
TITLE “Böhse Onkelz (Demo)”
PERFORMER “Boehse Onkelz”
INDEX 01 45:54:32
TRACK 19 AUDIO
TITLE “Deutschland (Demo)”
PERFORMER “Boehse Onkelz”
INDEX 01 48:30:50
TRACK 20 AUDIO
TITLE “Skinhead (Demo)”
PERFORMER “Boehse Onkelz”
INDEX 01 50:48:20
TRACK 21 AUDIO
TITLE “Mädchen (Demo)”
PERFORMER “Boehse Onkelz”
INDEX 01 53:20:00
TRACK 22 AUDIO
TITLE “Freitag Nacht (Demo)”
PERFORMER “Boehse Onkelz”
INDEX 01 55:14:50
TRACK 23 AUDIO
TITLE “Hippies (Demo)”
PERFORMER “Boehse Onkelz”
INDEX 01 57:51:50
TRACK 24 AUDIO
TITLE “Religion (Demo)”
PERFORMER “Boehse Onkelz”
INDEX 01 59:32:00
TRACK 25 AUDIO
TITLE “Stolz (Schnelle Version, Demo)”
PERFORMER “Boehse Onkelz”
INDEX 01 61:17:00
TRACK 26 AUDIO
TITLE “Idiot (Demo)”
PERFORMER “Boehse Onkelz”
INDEX 01 63:56:70
TRACK 27 AUDIO
TITLE “Oi, oi, oi (Demo)”
PERFORMER “Boehse Onkelz”
INDEX 01 67:49:60
TRACK 28 AUDIO
TITLE “Mexico ’86 (live)”
PERFORMER “Boehse Onkelz”
INDEX 01 69:15:67

Leave a Reply

Your email address will not be published. Required fields are marked *

Enter the text from the image below
 

This site uses Akismet to reduce spam. Learn how your comment data is processed.