Böhse Onkelz – Danke für nichts




Artist: Böhse Onkelz
Year: 1997
Genre: Rock
Notes: Discogs
Add. Notes:
Cover incl.: Yes
Encoder: FLAC
Bitrate: ~900 kBit/s (44.1 kHz/16 Bit/s)
Log & Cue incl.: Yes
Size: 253,45 MB
Password: “slam” (without ” “)


All Downloads/Hosters are compatible

Download 1
Turbobit.net
KatFile.com
Rapidgator.net
ddl.to
Download 2
Turbobit.net
KatFile.com
Rapidgator.net
ddl.to

Tracklist:

1. Bruno Baumann  
2. Ich Lieb Mich  
3. Idiot  
4. Deutsche Welle  
5. Hippies  
6. Religion  
7. Ich Mag  
8. Häßlich

EAC-Log, CUE-Sheed & NFO:

Click to open spoiler
Exact Audio Copy V0.99 prebeta 4 from 23. January 2008

Отчёт EAC об извлечении, выполненном 21. декабря 2008, 10:38

Boehse Onkelz / Biographie

Дисковод: Optiarc DVD RW AD-7170A Adapter: 0 ID: 0

Режим чтения : Достоверность
Использование точного потока : Да
Отключение кэша аудио : Да
Использование указателей C2 : Нет

Коррекция смещения при чтении : 48
Способность читать области Lead-in и Lead-out : Нет
Заполнение пропущенных сэмплов тишиной : Да
Удаление блоков с тишиной в начале и конце : Нет
При вычислениях CRC использовались нулевые сэмплы : Да
Интерфейс : Встроенный Win32-интерфейс для Win NT/2000

Выходной формат : Пользовательский кодировщик
Выбранный битрейт : 1024 kBit/s
Качество : Высокий
Добавление ID3-тэга : Да
Утилита сжатия : C:\Program Files\Exact Audio Copy\FLAC\FLAC.EXE
Дополнительные параметры : -6 -V -T “ARTIST=%a” -T “TITLE=%t” -T “ALBUM=%g” -T “DATE=%y” -T “TRACKNUMBER=%n” -T “GENRE=%m” -T “COMMENT=%e” %s -o %d

TOC извлечённого CD

Трек | Старт | Длительность | Начальный сектор | Конечный сектор
———————————————————————
1 | 0:00.00 | 1:54.17 | 0 | 8566
2 | 1:54.17 | 2:06.15 | 8567 | 18031
3 | 4:00.32 | 4:00.15 | 18032 | 36046
4 | 8:00.47 | 2:47.68 | 36047 | 48639
5 | 10:48.40 | 1:46.65 | 48640 | 56654
6 | 12:35.30 | 1:48.27 | 56655 | 64781
7 | 14:23.57 | 2:16.73 | 64782 | 75054
8 | 16:40.55 | 2:26.65 | 75055 | 86069

Характеристики диапазона извлечения и сообщения об ошибках

Выбранный диапазон

Имя файла E:\BO\1997-Danke fuer nichts [Biographi Beilage CD]\Boehse Onkelz – Biographie.wav

Пиковый уровень 99.9 %
Качество диапазона 99.9 %
CRC копии 2D24236D
Копирование… OK

Ошибок не произошло

Конец отчёта

REM DISCID 54047B08
REM COMMENT “ExactAudioCopy v0.99pb4”
PERFORMER “Boehse Onkelz”
TITLE “Biographie”
FILE “Boehse Onkelz – Biographie.flac” WAVE
TRACK 01 AUDIO
TITLE “Bruno Baumann”
PERFORMER “Boehse Onkelz”
FLAGS DCP
INDEX 01 00:00:00
TRACK 02 AUDIO
TITLE “Ich lieb’ mich”
PERFORMER “Boehse Onkelz”
FLAGS DCP
INDEX 00 01:52:17
INDEX 01 01:54:17
TRACK 03 AUDIO
TITLE “Idiot”
PERFORMER “Boehse Onkelz”
FLAGS DCP
INDEX 00 03:58:32
INDEX 01 04:00:32
TRACK 04 AUDIO
TITLE “Deutsche Welle”
PERFORMER “Boehse Onkelz”
FLAGS DCP
INDEX 00 07:58:47
INDEX 01 08:00:47
TRACK 05 AUDIO
TITLE “Hippies”
PERFORMER “Boehse Onkelz”
FLAGS DCP
INDEX 00 10:46:40
INDEX 01 10:48:40
TRACK 06 AUDIO
TITLE “Religion”
PERFORMER “Boehse Onkelz”
FLAGS DCP
INDEX 00 12:33:30
INDEX 01 12:35:30
TRACK 07 AUDIO
TITLE “Ich mag”
PERFORMER “Boehse Onkelz”
FLAGS DCP
INDEX 00 14:21:57
INDEX 01 14:23:57
TRACK 08 AUDIO
TITLE “Häßlich”
PERFORMER “Boehse Onkelz”
FLAGS DCP
INDEX 00 16:38:55
INDEX 01 16:40:55


Leave a Reply

Your email address will not be published. Required fields are marked *

This site uses Akismet to reduce spam. Learn how your comment data is processed.