Böhse Onkelz – Böse Menschen – Böse Lieder




Artist: Böhse Onkelz
Year: 1985
Genre: Rock
Notes: Discogs
Add. Notes:
Cover incl.: Yes
Encoder: FLAC
Bitrate: ~800 kBit/s (44.1 kHz/16 Bit/s)
Log & Cue incl.: Yes
Size: 223,2 MB
Password: “slam” (without ” “)


All Downloads/Hosters are compatible

Download 1
Turbobit.net
KatFile.com
Rapidgator.net
ddl.to
Download 2
Turbobit.net
KatFile.com
Rapidgator.net
ddl.to

Tracklist:

1 - Heute Trinken Wir Richtig - 4:53
2 - Das Signum Des Verrats - 4:47
3 - Stunde Des Siegers - 4:59
4 - Was Kann Ich Denn Dafür - 2:38
5 - Ein Mensch Wie Du Und Ich - 1:48
6 - Keiner Wusste Wie's Geschah - 4:58
7 - Hässlich, Brutal Und Gewalttätig - 3:07
8 - Nennt Mich Gott - 4:13
9 - 7 Tage Ohne Sünde - 2:57
10 - Hass - 3:18

EAC-Log, CUE-Sheed & NFO:

Click to open spoiler
Exact Audio Copy V0.99 prebeta 4 from 23. January 2008

Отчёт EAC об извлечении, выполненном 20. декабря 2008, 20:24

Bцhse Onkelz / Bцse Menschen – Bцse Lieder

Дисковод: Optiarc DVD RW AD-7170A Adapter: 0 ID: 0

Режим чтения : Достоверность
Использование точного потока : Да
Отключение кэша аудио : Да
Использование указателей C2 : Нет

Коррекция смещения при чтении : 48
Способность читать области Lead-in и Lead-out : Нет
Заполнение пропущенных сэмплов тишиной : Да
Удаление блоков с тишиной в начале и конце : Нет
При вычислениях CRC использовались нулевые сэмплы : Да
Интерфейс : Встроенный Win32-интерфейс для Win NT/2000

Выходной формат : Пользовательский кодировщик
Выбранный битрейт : 1024 kBit/s
Качество : Высокий
Добавление ID3-тэга : Да
Утилита сжатия : C:\Program Files\Exact Audio Copy\FLAC\FLAC.EXE
Дополнительные параметры : -6 -V -T “ARTIST=%a” -T “TITLE=%t” -T “ALBUM=%g” -T “DATE=%y” -T “TRACKNUMBER=%n” -T “GENRE=%m” -T “COMMENT=%e” %s -o %d

TOC извлечённого CD

Трек | Старт | Длительность | Начальный сектор | Конечный сектор
———————————————————————
1 | 0:00.00 | 4:47.40 | 0 | 21564
2 | 4:47.40 | 4:45.47 | 21565 | 42986
3 | 9:33.12 | 4:56.50 | 42987 | 65236
4 | 14:29.62 | 2:37.25 | 65237 | 77036
5 | 17:07.12 | 1:47.25 | 77037 | 85086
6 | 18:54.37 | 4:53.13 | 85087 | 107074
7 | 23:47.50 | 3:06.00 | 107075 | 121024
8 | 26:53.50 | 4:11.12 | 121025 | 139861
9 | 31:04.62 | 2:54.23 | 139862 | 152934
10 | 33:59.10 | 3:16.35 | 152935 | 167669

Характеристики диапазона извлечения и сообщения об ошибках

Выбранный диапазон

Имя файла E:\BO\1985-Boese Menschen Boese Lieder\Boehse Onkelz – Boese Menschen – Boese Lieder.wav

Пиковый уровень 100.0 %
Качество диапазона 100.0 %
CRC копии DFF790F5
Копирование… OK

Ошибок не произошло

Конец отчёта

REM GENRE Punk
REM DATE 1985
REM DISCID 8608BB0A
REM COMMENT “ExactAudioCopy v0.99pb4”
PERFORMER “Böhse Onkelz”
TITLE “Böse Menschen – Böse Lieder”
FILE “Boehse Onkelz – Boese Menschen – Boese Lieder.flac” WAVE
TRACK 01 AUDIO
TITLE “Heute trinken wir richtig”
PERFORMER “Böhse Onkelz”
INDEX 01 00:00:00
TRACK 02 AUDIO
TITLE “Das Signum des Verrats”
PERFORMER “Böhse Onkelz”
INDEX 01 04:47:40
TRACK 03 AUDIO
TITLE “Stunde des Siegers”
PERFORMER “Böhse Onkelz”
INDEX 01 09:33:12
TRACK 04 AUDIO
TITLE “Was kann ich denn dafür”
PERFORMER “Böhse Onkelz”
INDEX 01 14:29:62
TRACK 05 AUDIO
TITLE “Ein Mensch wie du und ich”
PERFORMER “Böhse Onkelz”
INDEX 01 17:07:12
TRACK 06 AUDIO
TITLE “Keiner wusste wie’s geschah”
PERFORMER “Böhse Onkelz”
INDEX 01 18:54:37
TRACK 07 AUDIO
TITLE “Hässlich, Brutal und Gewalttätig”
PERFORMER “Böhse Onkelz”
INDEX 01 23:47:50
TRACK 08 AUDIO
TITLE “Nennt mich Gott”
PERFORMER “Böhse Onkelz”
INDEX 01 26:53:50
TRACK 09 AUDIO
TITLE “7 Tage ohne Sünde”
PERFORMER “Böhse Onkelz”
INDEX 01 31:04:62
TRACK 10 AUDIO
TITLE “Hass”
PERFORMER “Böhse Onkelz”
INDEX 01 33:59:10


Leave a Reply

Your email address will not be published. Required fields are marked *

Enter the text from the image below
 

This site uses Akismet to reduce spam. Learn how your comment data is processed.