Böhse Onkelz – Adios




Artist: Böhse Onkelz
Year: 2004
Genre: Rock
Notes: Discogs
Add. Notes:
Cover incl.: No
Encoder: FLAC
Bitrate: ~1100 kBit/s (44.1 kHz/16 Bit/s)
Log & Cue incl.: Yes
Size: 436,05 MB
Password: “slam” (without ” “)


All Downloads/Hosters are compatible

Download 1
Turbobit.net
KatFile.com
Rapidgator.net
ddl.to
Download 2
Turbobit.net
KatFile.com
Rapidgator.net
ddl.to

Tracklist:

1 - Feuer - 3:34
2 - Immer Auf Der Suche - 2:58
3 - Superstar - 2:30
4 - Sowas Hat Man... - 5:01
5 - Ja, Ja - 3:35
6 - Lass Mich Gehn - 4:01
7 - Fang Mich - 2:47
8 - Einmal - 4:20
9 - Kinder Dieser Zeit - 3:04
10 - Hass-tler - 4:24
11 - Onkelz Vs. Jesus - 3:29
12 - Überstimuliert - 3:59
13 - Prinz Valium - 2:47
14 - Ihr Hättet Es Wissen Müssen - 5:21
15 - A.D.I.O.Z. - 5:12

EAC-Log, CUE-Sheed & NFO:

Click to open spoiler
Exact Audio Copy V0.99 prebeta 4 from 23. January 2008

????? EAC ?? ??????????, ??????????? 16. ???? 2008, 17:48

Boehse Onkelz / Adios

????????: Optiarc DVD RW AD-7170A Adapter: 0 ID: 0

????? ?????? : ?????????????
????????????? ??????? ?????? : ??
?????????? ???? ????? : ??
????????????? ?????????? C2 : ???

????????? ???????? ??? ?????? : 48
??????????? ?????? ??????? Lead-in ? Lead-out : ???
?????????? ??????????? ??????? ??????? : ??
???????? ?????? ? ??????? ? ?????? ? ????? : ???
??? ??????????? CRC ?????????????? ??????? ?????? : ??
????????? : ?????????? Win32-????????? ??? Win NT/2000

???????? ?????? : ???????????????? ??????????
????????? ??????? : 768 kBit/s
???????? : ???????
?????????? ID3-???? : ???
??????? ?????? : C:\Program Files\Exact Audio Copy\FLAC\FLAC.EXE
?????????????? ????????? : -6 -V -T “ARTIST=%a” -T “TITLE=%t” -T “ALBUM=%g” -T “DATE=%y” -T “TRACKNUMBER=%n” -T “GENRE=%m” -T “COMMENT=%e” %s -o %d

TOC ???????????? CD

???? | ????? | ???????????? | ????????? ?????? | ???????? ??????
———————————————————————
1 | 0:00.00 | 3:34.25 | 0 | 16074
2 | 3:34.25 | 2:58.02 | 16075 | 29426
3 | 6:32.27 | 2:29.58 | 29427 | 40659
4 | 9:02.10 | 5:00.72 | 40660 | 63231
5 | 14:03.07 | 3:35.05 | 63232 | 79361
6 | 17:38.12 | 4:01.24 | 79362 | 97460
7 | 21:39.36 | 2:46.56 | 97461 | 109966
8 | 24:26.17 | 4:20.18 | 109967 | 129484
9 | 28:46.35 | 3:04.15 | 129485 | 143299
10 | 31:50.50 | 4:23.44 | 143300 | 163068
11 | 36:14.19 | 3:29.16 | 163069 | 178759
12 | 39:43.35 | 3:58.44 | 178760 | 196653
13 | 43:42.04 | 2:47.28 | 196654 | 209206
14 | 46:29.32 | 5:21.04 | 209207 | 233285
15 | 51:50.36 | 5:11.42 | 233286 | 256652

?????????????? ????????? ?????????? ? ????????? ?? ???????

????????? ????????

??? ????? D:\My torrents\Boehse_Onkelz_lossless\2004-Adios\Boehse Onkelz – Adios.wav

??????? ??????? 100.0 %
???????? ????????? 100.0 %
CRC ????? 8071F0AD
???????????… OK

?????? ?? ?????????

AccurateRip: ??????

???? 1 ?????? ?????????? (??????? 12) [0678EA71]
???? 2 ?????? ?????????? (??????? 12) [7500D260]
???? 3 ?????? ?????????? (??????? 12) [AAF59364]
???? 4 ?????? ?????????? (??????? 12) [D5B4CAE2]
???? 5 ?????? ?????????? (??????? 12) [B0498444]
???? 6 ?????? ?????????? (??????? 12) [C6694C51]
???? 7 ?????? ?????????? (??????? 12) [017296D6]
???? 8 ?????? ?????????? (??????? 12) [20EA965A]
???? 9 ?????? ?????????? (??????? 12) [2A8D008F]
???? 10 ?????? ?????????? (??????? 12) [5D312124]
???? 11 ?????? ?????????? (??????? 12) [F3A1AB32]
???? 12 ?????? ?????????? (??????? 12) [ACCD7CED]
???? 13 ?????? ?????????? (??????? 12) [0B12F38A]
???? 14 ?????? ?????????? (??????? 12) [C79829E5]
???? 15 ?????? ?????????? (??????? 11) [D3589333]

??? ????? ????????? ?????

????? ??????

REM GENRE Rock
REM DATE 2004
REM DISCID C10D5E0F
REM COMMENT “ExactAudioCopy v0.99pb4”
PERFORMER “Boehse Onkelz”
TITLE “Adios”
FILE “Boehse Onkelz – Adios.flac” WAVE
TRACK 01 AUDIO
TITLE “Feuer”
PERFORMER “Boehse Onkelz”
INDEX 01 00:00:00
TRACK 02 AUDIO
TITLE “Immer Auf Der Suche”
PERFORMER “Boehse Onkelz”
INDEX 01 03:34:25
TRACK 03 AUDIO
TITLE “Superstar”
PERFORMER “Boehse Onkelz”
INDEX 01 06:32:27
TRACK 04 AUDIO
TITLE “Sowas Hat Man…”
PERFORMER “Boehse Onkelz”
INDEX 01 09:02:10
TRACK 05 AUDIO
TITLE “Ja, Ja”
PERFORMER “Boehse Onkelz”
INDEX 01 14:03:07
TRACK 06 AUDIO
TITLE “Lass Mich Gehn”
PERFORMER “Boehse Onkelz”
INDEX 01 17:38:12
TRACK 07 AUDIO
TITLE “Fang Mich”
PERFORMER “Boehse Onkelz”
INDEX 01 21:39:36
TRACK 08 AUDIO
TITLE “Einmal”
PERFORMER “Boehse Onkelz”
INDEX 01 24:26:17
TRACK 09 AUDIO
TITLE “Kinder Dieser Zeit”
PERFORMER “Boehse Onkelz”
INDEX 01 28:46:35
TRACK 10 AUDIO
TITLE “Hass-Tler”
PERFORMER “Boehse Onkelz”
INDEX 01 31:50:50
TRACK 11 AUDIO
TITLE “Onkelz Vs. Jesus”
PERFORMER “Boehse Onkelz”
INDEX 01 36:14:19
TRACK 12 AUDIO
TITLE “Ueberstimuliert”
PERFORMER “Boehse Onkelz”
INDEX 01 39:43:35
TRACK 13 AUDIO
TITLE “Prinz Valium”
PERFORMER “Boehse Onkelz”
INDEX 01 43:42:04
TRACK 14 AUDIO
TITLE “Ihr Haettet Es Wissen Müssen”
PERFORMER “Boehse Onkelz”
INDEX 01 46:29:32
TRACK 15 AUDIO
TITLE “A.D.I.O.Z.”
PERFORMER “Boehse Onkelz”
INDEX 01 51:50:36


Leave a Reply

Your email address will not be published. Required fields are marked *

This site uses Akismet to reduce spam. Learn how your comment data is processed.