Böhse Onkelz – 20 Jahre – Live In Frankfurt




No Cover available


Artist: Böhse Onkelz
Year: 2001
Genre: Rock
Notes: Discogs
Add. Notes:
Watch Songs on: YouTube
Cover incl.: Yes
Encoder: FLAC
Bitrate: ~900 kBit/s (44.1 kHz/16 Bit/s)
Log & Cue incl.: Yes/Yes
Size: 827,4 MB
Password: “slam” (without ” “)


All Downloads/Hosters are compatible

Download 1
KatFile.com
Rapidgator.net
NitroFlare.com
DDownload.com
Download 2
KatFile.com
Rapidgator.net
NitroFlare.com
DDownload.com

Tracklist:

1-01 - 10/20 Jahre - 3:13
1-02 - Wilde Jungs - 3:53
1-03 - Dick Und Durstig - 2:11
1-04 - Falsche Propheten - 3:11
1-05 - Stöckel Und Strapse - 2:26
1-06 - Bomberpilot - 3:22
1-07 - So Sind Wir - 3:44
1-08 - Ich Lieb' Mich - 1:33
1-09 - Heute Trinken Wir Richtig - 4:24
1-10 - Alkohol (Live-Mix/Festhallenchor) - 4:33
1-11 - Oratorium - 1:27
1-12 - Heilige Lieder - 4:42
1-13 - Finde Die Wahrheit - 3:57
1-14 - Onkelz 2000 - 4:09
1-15 - Ich - 3:46
1-16 - Ein Langer Weg - 4:07

2-01 - Benutz Mich - 3:42
2-02 - Wieder Mal 'Nen Tag Verschenkt - 4:07
2-03 - Danke Für Nichts - 3:39
2-04 - Nichts Ist Für Die Ewigkeit - 5:25
2-05 - Paradies - 3:26
2-06 - Terpentin - 3:49
2-07 - Wir Ham' Noch Lange Nicht Genug - 4:11
2-08 - Mexico - 2:55
2-09 - Erinnerungen - 5:52
2-10 - Festhallenjam (Bonus) - 3:14
2-11 - Alkohol (Bonus-Mix/Festhallenchor) - 4:33

EAC-Log, CUE-Sheed & NFO:

Click to open spoiler
Exact Audio Copy V0.99 prebeta 4 from 23. January 2008

Îò÷¸ò EAC îá èçâëå÷åíèè, âûïîëíåííîì 16. èþíÿ 2008, 19:30

Boehse Onkelz / 20 Jahre – Live in Frankfurt CD1

Äèñêîâîä: Optiarc DVD RW AD-7170A Adapter: 0 ID: 0

Ðåæèì ÷òåíèÿ : Äîñòîâåðíîñòü
Èñïîëüçîâàíèå òî÷íîãî ïîòîêà : Äà
Îòêëþ÷åíèå êýøà àóäèî : Äà
Èñïîëüçîâàíèå óêàçàòåëåé C2 : Íåò

Êîððåêöèÿ ñìåùåíèÿ ïðè ÷òåíèè : 48
Ñïîñîáíîñòü ÷èòàòü îáëàñòè Lead-in è Lead-out : Íåò
Çàïîëíåíèå ïðîïóùåííûõ ñýìïëîâ òèøèíîé : Äà
Óäàëåíèå áëîêîâ ñ òèøèíîé â íà÷àëå è êîíöå : Íåò
Ïðè âû÷èñëåíèÿõ CRC èñïîëüçîâàëèñü íóëåâûå ñýìïëû : Äà
Èíòåðôåéñ : Âñòðîåííûé Win32-èíòåðôåéñ äëÿ Win NT/2000

Âûõîäíîé ôîðìàò : Ïîëüçîâàòåëüñêèé êîäèðîâùèê
Âûáðàííûé áèòðåéò : 768 kBit/s
Êà÷åñòâî : Âûñîêèé
Äîáàâëåíèå ID3-òýãà : Íåò
Óòèëèòà ñæàòèÿ : C:\Program Files\Exact Audio Copy\FLAC\FLAC.EXE
Äîïîëíèòåëüíûå ïàðàìåòðû : -6 -V -T “ARTIST=%a” -T “TITLE=%t” -T “ALBUM=%g” -T “DATE=%y” -T “TRACKNUMBER=%n” -T “GENRE=%m” -T “COMMENT=%e” %s -o %d

TOC èçâëå÷¸ííîãî CD

Òðåê | Ñòàðò | Äëèòåëüíîñòü | Íà÷àëüíûé ñåêòîð | Êîíå÷íûé ñåêòîð
———————————————————————
1 | 0:00.32 | 5:01.00 | 32 | 22606
2 | 5:01.32 | 3:57.30 | 22607 | 40411
3 | 8:58.62 | 2:19.20 | 40412 | 50856
4 | 11:18.07 | 3:22.63 | 50857 | 66069
5 | 14:40.70 | 2:57.57 | 66070 | 79401
6 | 17:38.52 | 3:27.25 | 79402 | 94951
7 | 21:06.02 | 4:10.43 | 94952 | 113744
8 | 25:16.45 | 2:46.37 | 113745 | 126231
9 | 28:03.07 | 4:40.18 | 126232 | 147249
10 | 32:43.25 | 4:56.00 | 147250 | 169449
11 | 37:39.25 | 1:28.45 | 169450 | 176094
12 | 39:07.70 | 5:11.67 | 176095 | 199486
13 | 44:19.62 | 4:13.38 | 199487 | 218499
14 | 48:33.25 | 4:47.07 | 218500 | 240031
15 | 53:20.32 | 3:57.25 | 240032 | 257831
16 | 57:17.57 | 4:30.25 | 257832 | 278106

Õàðàêòåðèñòèêè äèàïàçîíà èçâëå÷åíèÿ è ñîîáùåíèÿ îá îøèáêàõ

Âûáðàííûé äèàïàçîí

Èìÿ ôàéëà D:\My torrents\Boehse_Onkelz_lossless\2001-20 Jahre – Live in Frankfurt CD1\Boehse Onkelz – 20 Jahre – Live in Frankfurt CD1.wav

Ïèêîâûé óðîâåíü 100.0 %
Êà÷åñòâî äèàïàçîíà 99.9 %
CRC êîïèè 0E1C497B
Êîïèðîâàíèå… OK

Îøèáîê íå ïðîèçîøëî

AccurateRip: ñâîäêà

Òðåê 1 íåò â áàçå äàííûõ
Òðåê 2 íåò â áàçå äàííûõ
Òðåê 3 íåò â áàçå äàííûõ
Òðåê 4 íåò â áàçå äàííûõ
Òðåê 5 íåò â áàçå äàííûõ
Òðåê 6 íåò â áàçå äàííûõ
Òðåê 7 íåò â áàçå äàííûõ
Òðåê 8 íåò â áàçå äàííûõ
Òðåê 9 íåò â áàçå äàííûõ
Òðåê 10 íåò â áàçå äàííûõ
Òðåê 11 íåò â áàçå äàííûõ
Òðåê 12 íåò â áàçå äàííûõ
Òðåê 13 íåò â áàçå äàííûõ
Òðåê 14 íåò â áàçå äàííûõ
Òðåê 15 íåò â áàçå äàííûõ
Òðåê 16 íåò â áàçå äàííûõ

Íè îäíîãî òðåêà íåò â áàçå AccurateRip

Êîíåö îò÷¸òà
Exact Audio Copy V0.99 prebeta 4 from 23. January 2008

Îò÷¸ò EAC îá èçâëå÷åíèè, âûïîëíåííîì 16. èþíÿ 2008, 20:20

Boehse Onkelz / 20 Jahre – Live in Frankfurt

Äèñêîâîä: Optiarc DVD RW AD-7170A Adapter: 0 ID: 0

Ðåæèì ÷òåíèÿ : Äîñòîâåðíîñòü
Èñïîëüçîâàíèå òî÷íîãî ïîòîêà : Äà
Îòêëþ÷åíèå êýøà àóäèî : Äà
Èñïîëüçîâàíèå óêàçàòåëåé C2 : Íåò

Êîððåêöèÿ ñìåùåíèÿ ïðè ÷òåíèè : 48
Ñïîñîáíîñòü ÷èòàòü îáëàñòè Lead-in è Lead-out : Íåò
Çàïîëíåíèå ïðîïóùåííûõ ñýìïëîâ òèøèíîé : Äà
Óäàëåíèå áëîêîâ ñ òèøèíîé â íà÷àëå è êîíöå : Íåò
Ïðè âû÷èñëåíèÿõ CRC èñïîëüçîâàëèñü íóëåâûå ñýìïëû : Äà
Èíòåðôåéñ : Âñòðîåííûé Win32-èíòåðôåéñ äëÿ Win NT/2000

Âûõîäíîé ôîðìàò : Ïîëüçîâàòåëüñêèé êîäèðîâùèê
Âûáðàííûé áèòðåéò : 768 kBit/s
Êà÷åñòâî : Âûñîêèé
Äîáàâëåíèå ID3-òýãà : Íåò
Óòèëèòà ñæàòèÿ : C:\Program Files\Exact Audio Copy\FLAC\FLAC.EXE
Äîïîëíèòåëüíûå ïàðàìåòðû : -6 -V -T “ARTIST=%a” -T “TITLE=%t” -T “ALBUM=%g” -T “DATE=%y” -T “TRACKNUMBER=%n” -T “GENRE=%m” -T “COMMENT=%e” %s -o %d

TOC èçâëå÷¸ííîãî CD

Òðåê | Ñòàðò | Äëèòåëüíîñòü | Íà÷àëüíûé ñåêòîð | Êîíå÷íûé ñåêòîð
———————————————————————
1 | 0:00.32 | 4:44.18 | 32 | 21349
2 | 4:44.50 | 4:30.32 | 21350 | 41631
3 | 9:15.07 | 4:25.65 | 41632 | 61571
4 | 13:40.72 | 5:53.73 | 61572 | 88119
5 | 19:34.70 | 3:34.12 | 88120 | 104181
6 | 23:09.07 | 4:50.10 | 104182 | 125941
7 | 27:59.17 | 4:21.38 | 125942 | 145554
8 | 32:20.55 | 3:52.02 | 145555 | 162956
9 | 36:12.57 | 6:17.48 | 162957 | 191279
10 | 42:30.30 | 3:13.27 | 191280 | 205781
11 | 45:43.57 | 4:36.50 | 205782 | 226531

Õàðàêòåðèñòèêè äèàïàçîíà èçâëå÷åíèÿ è ñîîáùåíèÿ îá îøèáêàõ

Âûáðàííûé äèàïàçîí

Èìÿ ôàéëà D:\My torrents\Boehse_Onkelz_lossless\2001-20 Jahre – Live in Frankfurt CD2\Boehse Onkelz – 20 Jahre – Live in Frankfurt.wav

Ïèêîâûé óðîâåíü 100.0 %
Êà÷åñòâî äèàïàçîíà 99.9 %
CRC êîïèè 9BA0E086
Êîïèðîâàíèå… OK

Îøèáîê íå ïðîèçîøëî

REM GENRE Rock
REM DATE 2001
REM DISCID D80E7C10
REM COMMENT “ExactAudioCopy v0.99pb4”
PERFORMER “Boehse Onkelz”
TITLE “20 Jahre – Live in Frankfurt CD1”
FILE “Boehse Onkelz – 20 Jahre – Live in Frankfurt CD1.flac” WAVE
TRACK 01 AUDIO
TITLE “10/20 Jahre”
PERFORMER “Boehse Onkelz”
INDEX 00 00:00:00
INDEX 01 00:00:32
TRACK 02 AUDIO
TITLE “Wilde Jungs”
PERFORMER “Boehse Onkelz”
INDEX 01 05:01:32
TRACK 03 AUDIO
TITLE “Dick und Durstig”
PERFORMER “Boehse Onkelz”
INDEX 01 08:58:62
TRACK 04 AUDIO
TITLE “Falsche Propheten”
PERFORMER “Boehse Onkelz”
INDEX 01 11:18:07
TRACK 05 AUDIO
TITLE “Stöckel und Strapse”
PERFORMER “Boehse Onkelz”
INDEX 01 14:40:70
TRACK 06 AUDIO
TITLE “Bomberpilot”
PERFORMER “Boehse Onkelz”
INDEX 01 17:38:52
TRACK 07 AUDIO
TITLE “So sind wir”
PERFORMER “Boehse Onkelz”
INDEX 01 21:06:02
TRACK 08 AUDIO
TITLE “Ich lieb mich”
PERFORMER “Boehse Onkelz”
INDEX 01 25:16:45
TRACK 09 AUDIO
TITLE “Heute trinken wir richtig”
PERFORMER “Boehse Onkelz”
INDEX 01 28:03:07
TRACK 10 AUDIO
TITLE “Alkohol (Live Mix)”
PERFORMER “Boehse Onkelz”
INDEX 01 32:43:25
TRACK 11 AUDIO
TITLE “Oratorium”
PERFORMER “Boehse Onkelz”
INDEX 01 37:39:25
TRACK 12 AUDIO
TITLE “Heilige Lieder”
PERFORMER “Boehse Onkelz”
INDEX 01 39:07:70
TRACK 13 AUDIO
TITLE “Finde die Wahrheit”
PERFORMER “Boehse Onkelz”
INDEX 01 44:19:62
TRACK 14 AUDIO
TITLE “Onkelz 2000”
PERFORMER “Boehse Onkelz”
INDEX 01 48:33:25
TRACK 15 AUDIO
TITLE “Ich”
PERFORMER “Boehse Onkelz”
INDEX 01 53:20:32
TRACK 16 AUDIO
TITLE “Ein langer Weg”
PERFORMER “Boehse Onkelz”
INDEX 01 57:17:57
REM GENRE Rock
REM DATE 2001
REM DISCID 9A0BCC0B
REM COMMENT “ExactAudioCopy v0.99pb4”
PERFORMER “Boehse Onkelz”
TITLE “20 Jahre – Live in Frankfurt”
FILE “B0ehse Onkelz – 20 Jahre – Live in Frankfurt.flac” WAVE
TRACK 01 AUDIO
TITLE “Benutz Mich”
PERFORMER “Boehse Onkelz”
INDEX 00 00:00:00
INDEX 01 00:00:32
TRACK 02 AUDIO
TITLE “Wieder Mal ´Nen Tag Verschenkt”
PERFORMER “Boehse Onkelz”
INDEX 01 04:44:50
TRACK 03 AUDIO
TITLE “Danke Für Nichts”
PERFORMER “Boehse Onkelz”
INDEX 01 09:15:07
TRACK 04 AUDIO
TITLE “Nichts Ist Für Die Ewigkeit”
PERFORMER “Boehse Onkelz”
INDEX 01 13:40:72
TRACK 05 AUDIO
TITLE “Paradies”
PERFORMER “Boehse Onkelz”
INDEX 01 19:34:70
TRACK 06 AUDIO
TITLE “Terpentin”
PERFORMER “Boehse Onkelz”
INDEX 01 23:09:07
TRACK 07 AUDIO
TITLE “Wir Ham´ Noch Lange Nicht Genug”
PERFORMER “Boehse Onkelz”
INDEX 01 27:59:17
TRACK 08 AUDIO
TITLE “Mexico”
PERFORMER “Boehse Onkelz”
INDEX 01 32:20:55
TRACK 09 AUDIO
TITLE “Erinnerung”
PERFORMER “Boehse Onkelz”
INDEX 01 36:12:57
TRACK 10 AUDIO
TITLE “Festhallenjam (Bonus)”
PERFORMER “Boehse Onkelz”
INDEX 00 42:28:20
INDEX 01 42:30:30
TRACK 11 AUDIO
TITLE “Alkohol (Bonus-Mix/Festhallenchor)”
PERFORMER “Boehse Onkelz”
INDEX 00 45:41:52
INDEX 01 45:43:57


Leave a Reply

Your email address will not be published. Required fields are marked *

Enter the text from the image below
 

This site uses Akismet to reduce spam. Learn how your comment data is processed.