Blur – Think Tank (Promo)




No Cover available

Artist: Blur
Year: 2003
Genre: Rock
Notes: Discogs
Add. Notes: Promo
Watch Songs on: YouTube
Cover incl.: Yes
Encoder: FLAC
Bitrate: ~900 kBit/s (44.1 kHz/16 Bit/s)
Log & Cue incl.: Yes
Size: 604,58 MB
Password: “slam” (without ” “)


All Downloads/Hosters are compatible

Download 1
KatFile.com
Turbobit.net
FileFactory.com
Rapidgator.net
Download 2
KatFile.com
Turbobit.net
FileFactory.com
Rapidgator.net

Tracklist:

1 - Ambulance - 5:09
2 - Out Of Time - 3:52
3 - Crazy Beat - 3:15
4 - Good Song - 3:09
5 - On The Way To The Club - 3:48
6 - Brothers And Sisters - 3:47
7 - Caravan - 4:36
8 - We've Got A File On You - 1:03
9 - Moroccan Peoples Revolutionary Bowls Club - 3:03
10 - Sweet Song - 4:01
11 - Jets - 6:25
12 - Gene By Gene - 3:48
13 - Battery In Your Leg - 3:19

EAC-Log, CUE-Sheed & NFO:

Click to open spoiler
Exact Audio Copy V0.99 prebeta 5 from 4. May 2009

EAC extraction logfile from 5. October 2010, 21:45

Blur / Think Tank THINK1 (EU Promo CD)

Used drive : PIONEER DVD-RW DVR-218L Adapter: 3 ID: 0

Read mode : Secure
Utilize accurate stream : Yes
Defeat audio cache : Yes
Make use of C2 pointers : No

Read offset correction : 6
Overread into Lead-In and Lead-Out : No
Fill up missing offset samples with silence : Yes
Delete leading and trailing silent blocks : No
Null samples used in CRC calculations : Yes
Used interface : Native Win32 interface for Win NT & 2000

Used output format : User Defined Encoder
Selected bitrate : 768 kBit/s
Quality : High
Add ID3 tag : No
Command line compressor : C:\Program Files\Exact Audio Copy\FLAC\FLAC.EXE
Additional command line options : -V -8 -T “artist=%a” -T “title=%t” -T “album=%g” -T “date=%y” -T “tracknumber=%n” -T “genre=%m” %s

TOC of the extracted CD

Track | Start | Length | Start sector | End sector
———————————————————
1 | 0:00.00 | 5:08.45 | 0 | 23144
2 | 5:08.45 | 3:51.40 | 23145 | 40509
3 | 9:00.10 | 3:14.42 | 40510 | 55101
4 | 12:14.52 | 3:08.45 | 55102 | 69246
5 | 15:23.22 | 3:48.00 | 69247 | 86346
6 | 19:11.22 | 3:47.13 | 86347 | 103384
7 | 22:58.35 | 4:35.62 | 103385 | 124071
8 | 27:34.22 | 1:02.38 | 124072 | 128759
9 | 28:36.60 | 3:02.60 | 128760 | 142469
10 | 31:39.45 | 4:00.72 | 142470 | 160541
11 | 35:40.42 | 6:25.18 | 160542 | 189434
12 | 42:05.60 | 3:48.37 | 189435 | 206571
13 | 45:54.22 | 3:19.35 | 206572 | 221531
14 | 51:45.57 | 22:12.18 | 232932 | 332849

Range status and errors

Selected range

Filename E:\Music\Blur\Albums\2003 – Think Tank THINK1 (EU Promo CD)\Blur – Think Tank THINK1 (EU Promo CD).wav

Peak level 100.0 %
Range quality 100.0 %
Test CRC ACEB4883
Copy CRC ACEB4883
Copy OK

No errors occurred

AccurateRip summary

Track 1 cannot be verified as accurate (confidence 1) [C5BA1F71], AccurateRip returned [9EE4B543]
Track 2 cannot be verified as accurate (confidence 1) [157036C3], AccurateRip returned [103DADF3]
Track 3 cannot be verified as accurate (confidence 1) [710FA618], AccurateRip returned [F7E0E622]
Track 4 cannot be verified as accurate (confidence 1) [EF379AA5], AccurateRip returned [AF596550]
Track 5 cannot be verified as accurate (confidence 1) [4264C052], AccurateRip returned [03ECFB66]
Track 6 cannot be verified as accurate (confidence 1) [3FB78A8E], AccurateRip returned [9CB76890]
Track 7 cannot be verified as accurate (confidence 1) [305D4EF8], AccurateRip returned [BA917750]
Track 8 cannot be verified as accurate (confidence 1) [B44EB921], AccurateRip returned [ED6750DE]
Track 9 cannot be verified as accurate (confidence 1) [33BA9170], AccurateRip returned [C62E01E8]
Track 10 cannot be verified as accurate (confidence 1) [59D26A2A], AccurateRip returned [C7B274E7]
Track 11 cannot be verified as accurate (confidence 1) [B6D9B42B], AccurateRip returned [9BC6FECB]
Track 12 cannot be verified as accurate (confidence 1) [B77717B3], AccurateRip returned [3CE335F9]
Track 13 not present in database

12 track(s) could not be verified as accurate
1 track(s) not present in the AccurateRip database

No tracks could be verified as accurate
You may have a different pressing from the one(s) in the database

End of status report

REM GENRE Indie
REM DATE 2003
REM DISCID AD11560E
REM COMMENT ExactAudioCopy v0.99pb5
PERFORMER “Blur”
TITLE “Think Tank THINK1 (EU Promo CD)”
FILE “Blur – Think Tank THINK1 (EU Promo CD).flac” WAVE
TRACK 01 AUDIO
TITLE “Ambulance”
INDEX 01 00:00:00
TRACK 02 AUDIO
TITLE “Out Of Time”
INDEX 00 05:07:40
INDEX 01 05:08:45
TRACK 03 AUDIO
TITLE “Crazy Beat”
INDEX 01 09:00:10
TRACK 04 AUDIO
TITLE “Good Song”
INDEX 00 12:13:22
INDEX 01 12:14:52
TRACK 05 AUDIO
TITLE “On The Way To The Club”
INDEX 00 15:21:45
INDEX 01 15:23:22
TRACK 06 AUDIO
TITLE “Brothers And Sisters”
INDEX 00 19:09:35
INDEX 01 19:11:22
TRACK 07 AUDIO
TITLE “Caravan”
INDEX 01 22:58:35
TRACK 08 AUDIO
TITLE “We’ve Got A File On You”
INDEX 00 27:23:30
INDEX 01 27:34:22
TRACK 09 AUDIO
TITLE “Moroccan People’s Revolutionary Bowls Club”
INDEX 01 28:36:60
TRACK 10 AUDIO
TITLE “Sweet Song”
INDEX 00 31:28:35
INDEX 01 31:39:45
TRACK 11 AUDIO
TITLE “Jets”
INDEX 01 35:40:42
TRACK 12 AUDIO
TITLE “Gene By Gene”
INDEX 00 42:03:65
INDEX 01 42:05:60
TRACK 13 AUDIO
TITLE “Battery In Your Leg”
INDEX 01 45:54:22


Leave a Reply

Your email address will not be published. Required fields are marked *

This site uses Akismet to reduce spam. Learn how your comment data is processed.