Blur – Think Tank (Limited Edition)




Artist: Blur
Year: 2003
Genre: Rock
Notes: Discogs
Add. Notes: Limited Edition
Cover incl.: Yes
Encoder: FLAC
Bitrate: ~900 kBit/s (44.1 kHz/16 Bit/s)
Log & Cue incl.: Yes
Size: 505,37 MB
Password: “slam” (without ” “)


All Downloads/Hosters are compatible

Download 1
Turbobit.net
Rapidgator.net
UploadEver.com
KatFile.com
UsersDrive.com
Download 2
Turbobit.net
Rapidgator.net
UploadEver.com
KatFile.com
UsersDrive.com
Download 3
Turbobit.net
Rapidgator.net
UploadEver.com
KatFile.com
UsersDrive.com

Tracklist:

0. Me White Noise 6:40
1. Ambulance 5:08
2. Out Of Time 3:51
3. Crazy Beat 3:14
4. Good Song 3:08
5. On The Way To The Club 3:47
6. Brothers And Sisters 3:47
7. Caravan 4:35
8. We've Got A File On You 1:02
9. Moroccan Peoples Revolutionary Bowls Club 3:02
10. Sweet Song 4:00
11. Jets 6:25
12. Gene By Gene 3:48
13. Battery In Your Leg 3:19
Enhanced CD
14. Ambulance (Live At MTV Studios, London) 4:31
15. Crazy Beat (Live At MTV Studios, London) 3:09
16. Good Song (Live At MTV Studios, London) 3:33
17. Out Of Time (Live At MTV Studios, London) 3:42

EAC-Log, CUE-Sheed & NFO:

Click to open spoiler
Exact Audio Copy V0.99 prebeta 5 from 4. May 2009

EAC extraction logfile from 18. February 2010, 19:44

Blur / Think Tank 582 9970 (UK Limited Edition)

Used drive : PIONEER DVD-RW DVR-218L Adapter: 3 ID: 0

Read mode : Secure
Utilize accurate stream : Yes
Defeat audio cache : Yes
Make use of C2 pointers : No

Read offset correction : 6
Overread into Lead-In and Lead-Out : No
Fill up missing offset samples with silence : Yes
Delete leading and trailing silent blocks : No
Null samples used in CRC calculations : Yes
Used interface : Native Win32 interface for Win NT & 2000

Used output format : User Defined Encoder
Selected bitrate : 768 kBit/s
Quality : High
Add ID3 tag : No
Command line compressor : C:\Program Files\Exact Audio Copy\FLAC\FLAC.EXE
Additional command line options : -8 -V -T “ARTIST=%a” -T “TITLE=%t” -T “ALBUM=%g” -T “DATE=%y” -T “TRACKNUMBER=%n” -T “GENRE=%m” -T “COMMENT=%e” %s -o %d

TOC of the extracted CD

Track | Start | Length | Start sector | End sector
———————————————————
1 | 6:48.69 | 5:08.66 | 30669 | 53834
2 | 11:57.60 | 3:51.43 | 53835 | 71202
3 | 15:49.28 | 3:14.42 | 71203 | 85794
4 | 19:03.70 | 3:08.43 | 85795 | 99937
5 | 22:12.38 | 3:47.74 | 99938 | 117036
6 | 26:00.37 | 3:47.18 | 117037 | 134079
7 | 29:47.55 | 4:35.62 | 134080 | 154766
8 | 34:23.42 | 1:02.25 | 154767 | 159441
9 | 35:25.67 | 3:02.73 | 159442 | 173164
10 | 38:28.65 | 4:00.66 | 173165 | 191230
11 | 42:29.56 | 6:25.18 | 191231 | 220123
12 | 48:54.74 | 3:48.43 | 220124 | 237266
13 | 52:43.42 | 3:19.34 | 237267 | 252225
14 | 58:35.01 | 16:17.60 | 263626 | 336960

Range status and errors

Selected range

Filename E:\Music\Blur\Albums\2003 – Think Tank 582 9970 (UK Special Redbook Edition)\Blur – Think Tank 582 9970 (UK Limited Edition).wav

Peak level 100.0 %
Range quality 99.9 %
Test CRC 468AF324
Copy CRC 468AF324
Copy OK

No errors occurred

AccurateRip summary

Track 1 accurately ripped (confidence 47) [20F20162]
Track 2 accurately ripped (confidence 46) [AEA4F971]
Track 3 accurately ripped (confidence 45) [E4F861BB]
Track 4 accurately ripped (confidence 44) [89AF7280]
Track 5 accurately ripped (confidence 44) [6B65937A]
Track 6 accurately ripped (confidence 44) [BBC27ABB]
Track 7 accurately ripped (confidence 44) [338F9638]
Track 8 accurately ripped (confidence 44) [3C22C447]
Track 9 accurately ripped (confidence 44) [96210092]
Track 10 accurately ripped (confidence 44) [B9EF0C28]
Track 11 accurately ripped (confidence 44) [85065464]
Track 12 accurately ripped (confidence 44) [A59CBD9F]
Track 13 accurately ripped (confidence 43) [085FD264]

All tracks accurately ripped

End of status report

REM GENRE AlternRock
REM DATE 2003
REM DISCID C10FF40E
REM COMMENT “ExactAudioCopy v0.99pb5”
PERFORMER “Blur”
TITLE “Think Tank 582 9970 (UK Limited Edition)”
FILE “Blur – Think Tank 582 9970 (UK Limited Edition).flac” WAVE
TRACK 01 AUDIO
TITLE “Ambulance”
PERFORMER “Blur”
INDEX 00 00:00:00
INDEX 01 06:48:69
TRACK 02 AUDIO
TITLE “Out Of Time”
PERFORMER “Blur”
INDEX 00 11:56:36
INDEX 01 11:57:60
TRACK 03 AUDIO
TITLE “Crazy Beat”
PERFORMER “Blur”
INDEX 01 15:49:28
TRACK 04 AUDIO
TITLE “Good Song”
PERFORMER “Blur”
INDEX 00 19:02:42
INDEX 01 19:03:70
TRACK 05 AUDIO
TITLE “On The Way To The Club”
PERFORMER “Blur”
INDEX 00 22:10:65
INDEX 01 22:12:38
TRACK 06 AUDIO
TITLE “Brothers And Sisters”
PERFORMER “Blur”
INDEX 00 25:58:55
INDEX 01 26:00:37
TRACK 07 AUDIO
TITLE “Caravan”
PERFORMER “Blur”
INDEX 01 29:47:55
TRACK 08 AUDIO
TITLE “We’ve Got a File On You”
PERFORMER “Blur”
INDEX 00 34:12:50
INDEX 01 34:23:42
TRACK 09 AUDIO
TITLE “Moroccan Peoples Revolutionary Bowls Club”
PERFORMER “Blur”
INDEX 00 35:25:66
INDEX 01 35:25:67
TRACK 10 AUDIO
TITLE “Sweet Song”
PERFORMER “Blur”
INDEX 00 38:17:55
INDEX 01 38:28:65
TRACK 11 AUDIO
TITLE “Jets”
PERFORMER “Blur”
INDEX 01 42:29:56
TRACK 12 AUDIO
TITLE “Gene By Gene”
PERFORMER “Blur”
INDEX 00 48:53:10
INDEX 01 48:54:74
TRACK 13 AUDIO
TITLE “Battery In Your Leg”
PERFORMER “Blur”
INDEX 01 52:43:42

Leave a Reply

Your email address will not be published. Required fields are marked *

This site uses Akismet to reduce spam. Learn how your comment data is processed.