Blur – Think Tank (Japanese Edition)




Artist: Blur
Year: 2003
Genre: Rock
Notes: Discogs
Add. Notes: Japanese Edition
Cover incl.: Yes
Encoder: FLAC
Bitrate: ~900 kBit/s (44.1 kHz/16 Bit/s)
Log & Cue incl.: Yes
Size: 387,78 MB
Password: “slam” (without ” “)


All Downloads/Hosters are compatible

Download 1
Turbobit.net
Rapidgator.net
UploadEver.com
KatFile.com
UsersDrive.com
Download 2
Turbobit.net
Rapidgator.net
UploadEver.com
KatFile.com
UsersDrive.com
Download 3
Turbobit.net
Rapidgator.net
UploadEver.com
KatFile.com
UsersDrive.com

Tracklist:

1 - Ambulance - 5:09
2 - Out Of Time - 3:52
3 - Crazy Beat - 3:14
4 - Good Song - 3:09
5 - On The Way To The Club - 3:48
6 - Brothers And Sisters - 3:47
7 - Caravan - 4:35
8 - We've Got A File On You - 1:03
9 - Moroccan Peoples Revolutionary Bowls Club - 3:03
10 - Sweet Song - 4:01
11 - Jets - 6:25
12 - Gene By Gene - 3:49
13 - Battery In Your Leg - 3:19
14 - The Outsider - 5:13
15-29 - (Blank) - 0:10
30 - Me, White Noise - 6:44

EAC-Log, CUE-Sheed & NFO:

Click to open spoiler
Exact Audio Copy V0.99 prebeta 5 from 4. May 2009

EAC extraction logfile from 11. February 2010, 20:15

Blur / Think Tank Japan TOCP-66153

Used drive : PIONEER DVD-RW DVR-218L Adapter: 3
ID: 0

Read mode : Secure
Utilize accurate stream : Yes
Defeat audio cache : Yes
Make use of C2 pointers : No

Read offset correction : 6
Overread into Lead-In and Lead-Out : No
Fill up missing offset samples with silence : Yes
Delete leading and trailing silent blocks : No
Null samples used in CRC calculations : Yes
Used interface : Native Win32 interface
for Win NT & 2000

Used output format : User Defined Encoder
Selected bitrate : 896 kBit/s
Quality : High
Add ID3 tag : No
Command line compressor : C:\Program Files\Exact
Audio Copy\FLAC\FLAC.EXE
Additional command line options : -8 -V -T “ARTIST=%a” –
T “TITLE=%t” -T “ALBUM=%g” -T “DATE=%y” -T
“TRACKNUMBER=%n” -T “GENRE=%m” -T
“COMMENT=%e” %s -o %d

TOC of the extracted CD

Track | Start | Length | Start sector | End sector
———————————————————
1 | 0:00.00 | 5:08.72 | 0 | 23171
2 | 5:08.72 | 3:51.60 | 23172 | 40556
3 | 9:00.57 | 3:14.20 | 40557 | 55126
4 | 12:15.02 | 3:08.43 | 55127 | 69269
5 | 15:23.45 | 3:48.02 | 69270 | 86371
6 | 19:11.47 | 3:47.35 | 86372 | 103431
7 | 22:59.07 | 4:35.35 | 103432 | 124091
8 | 27:34.42 | 1:02.43 | 124092 | 128784
9 | 28:37.10 | 3:02.60 | 128785 | 142494
10 | 31:39.70 | 4:01.20 | 142495 | 160589
11 | 35:41.15 | 6:24.70 | 160590 | 189459
12 | 42:06.10 | 3:48.47 | 189460 | 206606
13 | 45:54.57 | 3:19.23 | 206607 | 221554
14 | 49:14.05 | 5:12.62 | 221555 | 245016
15 | 54:26.67 | 0:10.00 | 245017 | 245766
16 | 54:36.67 | 0:10.00 | 245767 | 246516
17 | 54:46.67 | 0:10.00 | 246517 | 247266
18 | 54:56.67 | 0:10.00 | 247267 | 248016
19 | 55:06.67 | 0:10.00 | 248017 | 248766
20 | 55:16.67 | 0:10.00 | 248767 | 249516
21 | 55:26.67 | 0:10.00 | 249517 | 250266
22 | 55:36.67 | 0:10.00 | 250267 | 251016
23 | 55:46.67 | 0:10.00 | 251017 | 251766
24 | 55:56.67 | 0:10.00 | 251767 | 252516
25 | 56:06.67 | 0:10.00 | 252517 | 253266
26 | 56:16.67 | 0:10.00 | 253267 | 254016
27 | 56:26.67 | 0:10.00 | 254017 | 254766
28 | 56:36.67 | 0:10.00 | 254767 | 255516
29 | 56:46.67 | 0:10.00 | 255517 | 256266
30 | 56:56.67 | 6:44.28 | 256267 | 286594
31 | 66:13.20 | 7:44.55 | 297995 | 332849

Range status and errors

Selected range

Filename E:\Music\Blur\Albums\2003 – Think Tank
Japan TOCP-66153\Blur – Think Tank Japan
TOCP-66153.wav

Peak level 100.0 %
Range quality 99.9 %
Test CRC F9A766B2
Copy CRC F9A766B2
Copy OK

No errors occurred

AccurateRip summary

Track 1 not present in database
Track 2 not present in database
Track 3 not present in database
Track 4 not present in database
Track 5 not present in database
Track 6 not present in database
Track 7 not present in database
Track 8 not present in database
Track 9 not present in database
Track 10 not present in database
Track 11 not present in database
Track 12 not present in database
Track 13 not present in database
Track 14 not present in database
Track 15 not present in database
Track 16 not present in database
Track 17 not present in database
Track 18 not present in database
Track 19 not present in database
Track 20 not present in database
Track 21 not present in database
Track 22 not present in database
Track 23 not present in database
Track 24 not present in database
Track 25 not present in database
Track 26 not present in database
Track 27 not present in database
Track 28 not present in database
Track 29 not present in database
Track 30 not present in database

None of the tracks are present in the AccurateRip
database

End of status report

REM GENRE Rock
REM DATE 2003
REM DISCID 0111561F
REM COMMENT “ExactAudioCopy v0.99pb5”
PERFORMER “Blur”
TITLE “Think Tank Japan TOCP-66153”
FILE “Blur – Think Tank Japan TOCP-66153.flac” WAVE
TRACK 01 AUDIO
TITLE “Ambulance”
PERFORMER “Blur”
INDEX 01 00:00:00
TRACK 02 AUDIO
TITLE “Out Of Time”
PERFORMER “Blur”
INDEX 00 05:08:35
INDEX 01 05:08:72
TRACK 03 AUDIO
TITLE “Crazy Beat”
PERFORMER “Blur”
INDEX 01 09:00:57
TRACK 04 AUDIO
TITLE “Good Song”
PERFORMER “Blur”
INDEX 00 12:14:15
INDEX 01 12:15:02
TRACK 05 AUDIO
TITLE “On The Way To The Club”
PERFORMER “Blur”
INDEX 00 15:22:40
INDEX 01 15:23:45
TRACK 06 AUDIO
TITLE “Brothers And Sisters”
PERFORMER “Blur”
INDEX 00 19:10:30
INDEX 01 19:11:47
TRACK 07 AUDIO
TITLE “Caravan”
PERFORMER “Blur”
INDEX 01 22:59:07
TRACK 08 AUDIO
TITLE “We’ve Got A File On You”
PERFORMER “Blur”
INDEX 00 27:23:40
INDEX 01 27:34:42
TRACK 09 AUDIO
TITLE “Moroccan Peoples Revolutionary Bowls Club”
PERFORMER “Blur”
INDEX 00 28:36:60
INDEX 01 28:37:10
TRACK 10 AUDIO
TITLE “Sweet Song”
PERFORMER “Blur”
INDEX 00 31:30:25
INDEX 01 31:39:70
TRACK 11 AUDIO
TITLE “Jets”
PERFORMER “Blur”
INDEX 00 35:41:10
INDEX 01 35:41:15
TRACK 12 AUDIO
TITLE “Gene By Gene”
PERFORMER “Blur”
INDEX 00 42:04:30
INDEX 01 42:06:10
TRACK 13 AUDIO
TITLE “Battery In Your Leg”
PERFORMER “Blur”
INDEX 01 45:54:57
TRACK 14 AUDIO
TITLE “The Outsider”
PERFORMER “Blur”
INDEX 01 49:14:05
TRACK 15 AUDIO
TITLE “Blank”
PERFORMER “Blur”
INDEX 01 54:26:67
TRACK 16 AUDIO
TITLE “Blank”
PERFORMER “Blur”
INDEX 01 54:36:67
TRACK 17 AUDIO
TITLE “Blank”
PERFORMER “Blur”
INDEX 01 54:46:67
TRACK 18 AUDIO
TITLE “Blank”
PERFORMER “Blur”
INDEX 01 54:56:67
TRACK 19 AUDIO
TITLE “Blank”
PERFORMER “Blur”
INDEX 01 55:06:67
TRACK 20 AUDIO
TITLE “Blank”
PERFORMER “Blur”
INDEX 01 55:16:67
TRACK 21 AUDIO
TITLE “Blank”
PERFORMER “Blur”
INDEX 01 55:26:67
TRACK 22 AUDIO
TITLE “Blank”
PERFORMER “Blur”
INDEX 01 55:36:67
TRACK 23 AUDIO
TITLE “Blank”
PERFORMER “Blur”
INDEX 01 55:46:67
TRACK 24 AUDIO
TITLE “Blank”
PERFORMER “Blur”
INDEX 01 55:56:67
TRACK 25 AUDIO
TITLE “Blank”
PERFORMER “Blur”
INDEX 01 56:06:67
TRACK 26 AUDIO
TITLE “Blank”
PERFORMER “Blur”
INDEX 01 56:16:67
TRACK 27 AUDIO
TITLE “Blank”
PERFORMER “Blur”
INDEX 01 56:26:67
TRACK 28 AUDIO
TITLE “Blank”
PERFORMER “Blur”
INDEX 01 56:36:67
TRACK 29 AUDIO
TITLE “Blank”
PERFORMER “Blur”
INDEX 01 56:46:67
TRACK 30 AUDIO
TITLE “Me, White Noise (Hidden Track)”
PERFORMER “Blur”
INDEX 01 56:56:67

Leave a Reply

Your email address will not be published. Required fields are marked *

This site uses Akismet to reduce spam. Learn how your comment data is processed.