Blur – The Special Collectors Edition (Japanese Edition)




Artist: Blur
Year: 1994
Genre: Rock
Notes: Discogs
Add. Notes: Japanese Edition
Cover incl.: Yes
Encoder: FLAC
Bitrate: ~800 kBit/s (44.1 kHz/16 Bit/s)
Log & Cue incl.: Yes
Size: 369,32 MB
Password: “slam” (without ” “)


All Downloads/Hosters are compatible

Download 1
Turbobit.net
Rapidgator.net
UploadEver.com
JustUpload.io
UsersDrive.com
Download 2
Turbobit.net
Rapidgator.net
UploadEver.com
JustUpload.io
UsersDrive.com
Download 3
Turbobit.net
Rapidgator.net
UploadEver.com
JustUpload.io
UsersDrive.com

Tracklist:

1 - Day Upon Day (Live) 	4:02
2 - Inertia 	3:47
3 - Luminous 	3:12
4 - Mace 	3:24
5 - Badgeman Brown 	4:46
6 - Hanging Over 	4:26
7 - Peach 	3:56
8 - When The Cows Come Home 	3:48
9 - Maggie May 	4:04
10 - Es Schmecht 	3:34
11 - Blur Featuring Seymour 	Fried 	2:33
12 - Anniversary Waltz 	1:22
13 - Threadneedle Street 	3:17
14 - Got Yer! 	1:47
15 - Supa Shoppa 	3:01
16 - Beard 	1:44
17 - Theme From An Imaginary Film 	3:33
18 - Bank Holiday 	1:10

EAC-Log, CUE-Sheed & NFO:

Click to open spoiler
Exact Audio Copy V0.99 prebeta 5 from 4. May 2009

EAC extraction logfile from 20. January 2010, 5:31

Blur / The Special Collectors Edition TOCP-8395

Used drive : _NEC DVD_RW ND-3500AG Adapter: 1 ID: 1

Read mode : Secure
Utilize accurate stream : Yes
Defeat audio cache : Yes
Make use of C2 pointers : No

Read offset correction : 48
Overread into Lead-In and Lead-Out : No
Fill up missing offset samples with silence : Yes
Delete leading and trailing silent blocks : No
Null samples used in CRC calculations : Yes
Used interface : Installed external ASPI interface

Used output format : Internal WAV Routines
Sample format : 44.100 Hz; 16 Bit; Stereo

TOC of the extracted CD

Track | Start | Length | Start sector | End sector
———————————————————
1 | 0:00.00 | 4:03.05 | 0 | 18229
2 | 4:03.05 | 3:48.67 | 18230 | 35396
3 | 7:51.72 | 3:12.68 | 35397 | 49864
4 | 11:04.65 | 3:25.47 | 49865 | 65286
5 | 14:30.37 | 4:47.68 | 65287 | 86879
6 | 19:18.30 | 4:27.27 | 86880 | 106931
7 | 23:45.57 | 3:57.05 | 106932 | 124711
8 | 27:42.62 | 3:49.50 | 124712 | 141936
9 | 31:32.37 | 4:05.48 | 141937 | 160359
10 | 35:38.10 | 3:35.25 | 160360 | 176509
11 | 39:13.35 | 2:34.32 | 176510 | 188091
12 | 41:47.67 | 1:24.58 | 188092 | 194449
13 | 43:12.50 | 3:18.10 | 194450 | 209309
14 | 46:30.60 | 1:48.27 | 209310 | 217436
15 | 48:19.12 | 3:02.55 | 217437 | 231141
16 | 51:21.67 | 1:45.03 | 231142 | 239019
17 | 53:06.70 | 3:34.30 | 239020 | 255099
18 | 56:41.25 | 1:10.37 | 255100 | 260386

Range status and errors

Selected range

Filename C:\My Music\Blur\The Special Collectors Edition TOCP-8395\The Special Collectors Edition TOCP-8395.wav

Peak level 96.7 %
Range quality 100.0 %
Test CRC 15A7D2C2
Copy CRC 15A7D2C2
Copy OK

No errors occurred

AccurateRip summary

Track 1 accurately ripped (confidence 3) [2E283FD7]
Track 2 accurately ripped (confidence 3) [D427B34F]
Track 3 accurately ripped (confidence 3) [8CAD9497]
Track 4 accurately ripped (confidence 3) [471E1BB1]
Track 5 accurately ripped (confidence 3) [55204AF1]
Track 6 accurately ripped (confidence 3) [B86FB4B2]
Track 7 accurately ripped (confidence 3) [E31EDC18]
Track 8 accurately ripped (confidence 3) [C02825CA]
Track 9 accurately ripped (confidence 3) [504F82CA]
Track 10 accurately ripped (confidence 3) [26D5BBD4]
Track 11 accurately ripped (confidence 3) [80CB490F]
Track 12 accurately ripped (confidence 3) [DF9D9F33]
Track 13 accurately ripped (confidence 3) [D694A7BC]
Track 14 accurately ripped (confidence 3) [ED59EBEF]
Track 15 accurately ripped (confidence 3) [70679F1B]
Track 16 accurately ripped (confidence 3) [9A9710E5]
Track 17 accurately ripped (confidence 3) [6D479CEC]
Track 18 accurately ripped (confidence 3) [7F13EEE3]

All tracks accurately ripped

End of status report

REM GENRE BritPop
REM DATE 1994
REM DISCID 020D8F12
REM COMMENT “ExactAudioCopy v0.99pb5”
PERFORMER “Blur”
TITLE “The Special Collectors Edition TOCP-8395”
FILE “The Special Collectors Edition TOCP-8395.flac” WAVE
TRACK 01 AUDIO
TITLE “Day Upon Day (Live at the Mole Club, Bath. 19th December 1990)”
PERFORMER “Blur”
INDEX 01 00:00:00
TRACK 02 AUDIO
TITLE “Inertia”
PERFORMER “Blur”
INDEX 00 04:02:07
INDEX 01 04:03:05
TRACK 03 AUDIO
TITLE “Luminous”
PERFORMER “Blur”
INDEX 00 07:50:50
INDEX 01 07:51:72
TRACK 04 AUDIO
TITLE “Mace”
PERFORMER “Blur”
INDEX 00 11:04:12
INDEX 01 11:04:65
TRACK 05 AUDIO
TITLE “Badgeman Brown”
PERFORMER “Blur”
INDEX 00 14:29:52
INDEX 01 14:30:37
TRACK 06 AUDIO
TITLE “Hanging Over”
PERFORMER “Blur”
INDEX 00 19:17:32
INDEX 01 19:18:30
TRACK 07 AUDIO
TITLE “Peach”
PERFORMER “Blur”
INDEX 00 23:44:62
INDEX 01 23:45:57
TRACK 08 AUDIO
TITLE “When The Cows Come Home”
PERFORMER “Blur”
INDEX 00 27:41:62
INDEX 01 27:42:62
TRACK 09 AUDIO
TITLE “Maggie May”
PERFORMER “Blur”
INDEX 00 31:31:07
INDEX 01 31:32:37
TRACK 10 AUDIO
TITLE “Es Schmecht”
PERFORMER “Blur”
INDEX 00 35:37:17
INDEX 01 35:38:10
TRACK 11 AUDIO
TITLE “Fried (featuring Seymour)”
PERFORMER “Blur”
INDEX 00 39:12:20
INDEX 01 39:13:35
TRACK 12 AUDIO
TITLE “Anniversary Waltz”
PERFORMER “Blur”
INDEX 00 41:46:47
INDEX 01 41:47:67
TRACK 13 AUDIO
TITLE “Threadneedle Street”
PERFORMER “Blur”
INDEX 00 43:10:47
INDEX 01 43:12:50
TRACK 14 AUDIO
TITLE “Got Yer!”
PERFORMER “Blur”
INDEX 00 46:29:62
INDEX 01 46:30:60
TRACK 15 AUDIO
TITLE “Supa Shoppa”
PERFORMER “Blur”
INDEX 00 48:18:10
INDEX 01 48:19:12
TRACK 16 AUDIO
TITLE “Beard”
PERFORMER “Blur”
INDEX 00 51:20:42
INDEX 01 51:21:67
TRACK 17 AUDIO
TITLE “Theme From An Imaginary Film”
PERFORMER “Blur”
INDEX 00 53:06:10
INDEX 01 53:06:70
TRACK 18 AUDIO
TITLE “Bank Holiday (Version sung at Tokyo Airport by fans)”
PERFORMER “Blur”
INDEX 00 56:40:37
INDEX 01 56:41:25

Leave a Reply

Your email address will not be published. Required fields are marked *

Enter the text from the image below
 

This site uses Akismet to reduce spam. Learn how your comment data is processed.