Blur – The Great Escape (Japanese Edition)




No Cover available

Artist: Blur
Year: 1995
Genre: Rock
Notes: Discogs
Add. Notes: Japanese Edition
Watch Songs on: YouTube
Cover incl.: Yes
Encoder: FLAC
Bitrate: ~900 kBit/s (44.1 kHz/16 Bit/s)
Log & Cue incl.: Yes
Size: 450,9 MB
Password: “slam” (without ” “)


All Downloads/Hosters are compatible

Download 1
KatFile.com
Turbobit.net
FileFactory.com
Rapidgator.net
Download 2
KatFile.com
Turbobit.net
FileFactory.com
Rapidgator.net

Tracklist:

1 - Stereotypes - 3:11
2 - Country House - 3:57
3 - Best Days - 4:49
4 - Charmless Man - 3:35
5 - Fade Away - 4:19
6 - Top Man - 4:00
7 - The Universal - 3:59
8 - Mr. Robinsons' Quango - 4:01
9 - He Thought Of Cars - 4:17
10 - It Could Be You - 3:13
11 - Ernold Same - 2:08
12 - Globe Alone - 2:24
13 - Dan Abnormal - 3:24
14 - Entertain Me - 4:20
15 - Yuko And Hiro - 5:24
16 - Ultranol - 2:41
17 - No Monsters In Me - 5:14

EAC-Log, CUE-Sheed & NFO:

Click to open spoiler
Exact Audio Copy V0.99 prebeta 5 from 4. May 2009

EAC extraction logfile from 13. January 2010, 22:18

Blur / The Great Escape (Japan TOCP-8633)

Used drive : _NEC DVD_RW ND-3500AG Adapter: 1 ID: 1

Read mode : Secure
Utilize accurate stream : Yes
Defeat audio cache : Yes
Make use of C2 pointers : No

Read offset correction : 48
Overread into Lead-In and Lead-Out : No
Fill up missing offset samples with silence : Yes
Delete leading and trailing silent blocks : No
Null samples used in CRC calculations : Yes
Used interface : Installed external ASPI interface

Used output format : Internal WAV Routines
Sample format : 44.100 Hz; 16 Bit; Stereo

TOC of the extracted CD

Track | Start | Length | Start sector | End sector
———————————————————
1 | 0:00.00 | 3:11.27 | 0 | 14351
2 | 3:11.27 | 3:57.28 | 14352 | 32154
3 | 7:08.55 | 4:48.60 | 32155 | 53814
4 | 11:57.40 | 3:35.17 | 53815 | 69956
5 | 15:32.57 | 4:19.08 | 69957 | 89389
6 | 19:51.65 | 4:00.32 | 89390 | 107421
7 | 23:52.22 | 3:59.25 | 107422 | 125371
8 | 27:51.47 | 4:01.35 | 125372 | 143481
9 | 31:53.07 | 4:16.38 | 143482 | 162719
10 | 36:09.45 | 3:13.07 | 162720 | 177201
11 | 39:22.52 | 2:07.35 | 177202 | 186761
12 | 41:30.12 | 2:23.55 | 186762 | 197541
13 | 43:53.67 | 3:24.15 | 197542 | 212856
14 | 47:18.07 | 4:19.38 | 212857 | 232319
15 | 51:37.45 | 3:54.35 | 232320 | 249904
16 | 55:32.05 | 2:41.62 | 249905 | 262041
17 | 58:13.67 | 5:14.25 | 262042 | 285616

Range status and errors

Selected range

Filename C:\My Music\Blur\The Great Escape (Japan TOCP-8633)\Blur – The Great Escape (Japan TOCP-8633).wav

Peak level 98.0 %
Range quality 100.0 %
Test CRC 28B88081
Copy CRC 28B88081
Copy OK

No errors occurred

AccurateRip summary

Track 1 not present in database
Track 2 not present in database
Track 3 not present in database
Track 4 not present in database
Track 5 not present in database
Track 6 not present in database
Track 7 not present in database
Track 8 not present in database
Track 9 not present in database
Track 10 not present in database
Track 11 not present in database
Track 12 not present in database
Track 13 not present in database
Track 14 not present in database
Track 15 not present in database
Track 16 not present in database
Track 17 not present in database

None of the tracks are present in the AccurateRip database

End of status report

REM GENRE BritPop
REM DATE 1995
REM DISCID F20EE011
REM COMMENT “ExactAudioCopy v0.99pb5”
PERFORMER “Blur”
TITLE “The Great Escape (Japan TOCP-8633)”
FILE “Blur – The Great Escape (Japan TOCP-8633).flac” WAVE
TRACK 01 AUDIO
TITLE “Stereotypes”
PERFORMER “Blur”
INDEX 01 00:00:00
TRACK 02 AUDIO
TITLE “Country House”
PERFORMER “Blur”
INDEX 01 03:11:27
TRACK 03 AUDIO
TITLE “Best Days”
PERFORMER “Blur”
INDEX 01 07:08:55
TRACK 04 AUDIO
TITLE “Charmless Man”
PERFORMER “Blur”
INDEX 01 11:57:40
TRACK 05 AUDIO
TITLE “Fade Away”
PERFORMER “Blur”
INDEX 01 15:32:57
TRACK 06 AUDIO
TITLE “Top Man”
PERFORMER “Blur”
INDEX 01 19:51:65
TRACK 07 AUDIO
TITLE “The Universal”
PERFORMER “Blur”
INDEX 01 23:52:22
TRACK 08 AUDIO
TITLE “Mr. Robinsons’ Quango”
PERFORMER “Blur”
INDEX 01 27:51:47
TRACK 09 AUDIO
TITLE “He Thought Of Cars”
PERFORMER “Blur”
INDEX 01 31:53:07
TRACK 10 AUDIO
TITLE “It Could Be You”
PERFORMER “Blur”
INDEX 01 36:09:45
TRACK 11 AUDIO
TITLE “Ernold Same”
PERFORMER “Blur”
INDEX 01 39:22:52
TRACK 12 AUDIO
TITLE “Globe Alone”
PERFORMER “Blur”
INDEX 01 41:30:12
TRACK 13 AUDIO
TITLE “Dan Abnormal”
PERFORMER “Blur”
INDEX 01 43:53:67
TRACK 14 AUDIO
TITLE “Entertain Me”
PERFORMER “Blur”
INDEX 01 47:18:07
TRACK 15 AUDIO
TITLE “Yuko And Hiro”
PERFORMER “Blur”
INDEX 01 51:37:45
TRACK 16 AUDIO
TITLE “Ultranol”
PERFORMER “Blur”
INDEX 00 55:28:32
INDEX 01 55:32:05
TRACK 17 AUDIO
TITLE “No Monsters In Me + Outro”
PERFORMER “Blur”
INDEX 01 58:13:67


Leave a Reply

Your email address will not be published. Required fields are marked *

This site uses Akismet to reduce spam. Learn how your comment data is processed.