Blur – The Best Of (Promo) (Japanese Edition)




Artist: Blur
Year: 2000
Genre: Rock
Notes: Discogs
Add. Notes: Japanese Edition
Cover incl.: Yes
Encoder: FLAC
Bitrate: ~1000 kBit/s (44.1 kHz/16 Bit/s)
Log & Cue incl.: Yes
Size: 828,51 MB
Password: “slam” (without ” “)


All Downloads/Hosters are compatible

Download 1
Turbobit.net
Rapidgator.net
UploadEver.com
KatFile.com
UsersDrive.com
Download 2
Turbobit.net
Rapidgator.net
UploadEver.com
KatFile.com
UsersDrive.com
Download 3
Turbobit.net
Rapidgator.net
UploadEver.com
KatFile.com
UsersDrive.com

Tracklist:

1-1 - Beetlebum - 5:06
1-2 - Song 2 - 2:02
1-3 - There's No Other Way - 3:14
1-4 - The Universal - 4:00
1-5 - Coffee & TV (Single Edit) - 5:19
1-6 - Parklife - 3:07
1-7 - End Of A Century - 2:47
1-8 - No Distance Left To Run - 3:26
1-9 - Tender - 7:41
1-10 - Girls & Boys (Edit) - 4:19
1-11 - Charmless Man - 3:34
1-12 - She's So High (Edit) - 3:50
1-13 - Country House - 3:58
1-14 - To The End (Edit) - 3:52
1-15 - On Your Own - 4:27
1-16 - This Is A Low - 5:03
1-17 - For Tomorrow (Visit To Primrose Hill Extended) - 
6:02
1-18 - Music Is My Radar - 5:29
Bonus CD: Recorded Live At Wembley Arena 11/12/99
2-1 - She's So High - 5:24
2-2 - Girls & Boys - 4:21
2-3 - To The End - 4:09
2-4 - End Of A Century - 3:01
2-5 - Stereotypes - 3:27
2-6 - Charmless Man - 3:32
2-7 - Beetlebum - 6:10
2-8 - M.O.R. - 3:10
2-9 - Tender - 6:20
2-10 - No Distance Left To Run - 4:09

EAC-Log, CUE-Sheed & NFO:

Click to open spoiler
Exact Audio Copy V0.99 prebeta 5 from 4. May 2009

EAC extraction logfile from 23. December 2010, 23:17

Blur / The Best Of TOCP-65595 (Japan Edition) CD1

Used drive : PIONEER DVD-RW DVR-218L Adapter: 3 ID: 0

Read mode : Secure
Utilize accurate stream : Yes
Defeat audio cache : Yes
Make use of C2 pointers : No

Read offset correction : 6
Overread into Lead-In and Lead-Out : No
Fill up missing offset samples with silence : Yes
Delete leading and trailing silent blocks : No
Null samples used in CRC calculations : Yes
Used interface : Native Win32 interface for Win NT & 2000

Used output format : User Defined Encoder
Selected bitrate : 768 kBit/s
Quality : High
Add ID3 tag : No
Command line compressor : C:\Program Files (x86)\Exact Audio Copy\Flac\flac.exe
Additional command line options : -8 -V %s

TOC of the extracted CD

Track | Start | Length | Start sector | End sector
———————————————————
1 | 0:00.00 | 5:05.50 | 0 | 22924
2 | 5:05.50 | 2:02.00 | 22925 | 32074
3 | 7:07.50 | 3:13.72 | 32075 | 46621
4 | 10:21.47 | 4:00.23 | 46622 | 64644
5 | 14:21.70 | 5:18.45 | 64645 | 88539
6 | 19:40.40 | 3:07.30 | 88540 | 102594
7 | 22:47.70 | 2:46.70 | 102595 | 115114
8 | 25:34.65 | 3:26.27 | 115115 | 130591
9 | 29:01.17 | 7:41.35 | 130592 | 165201
10 | 36:42.52 | 4:18.63 | 165202 | 184614
11 | 41:01.40 | 3:33.45 | 184615 | 200634
12 | 44:35.10 | 3:49.65 | 200635 | 217874
13 | 48:25.00 | 3:57.55 | 217875 | 235704
14 | 52:22.55 | 3:51.67 | 235705 | 253096
15 | 56:14.47 | 4:27.15 | 253097 | 273136
16 | 60:41.62 | 5:02.60 | 273137 | 295846
17 | 65:44.47 | 6:02.13 | 295847 | 323009
18 | 71:46.60 | 5:29.07 | 323010 | 347691

Range status and errors

Selected range

Filename F:\Music\Blur\Albums\2000 – The Best Of TOCP-65595 (Japan Edition)\The Best Of TOCP-65595 (Japan Edition) CD1.wav

Peak level 99.3 %
Range quality 100.0 %
Test CRC 88F4300C
Copy CRC 88F4300C
Copy OK

No errors occurred

AccurateRip summary

Track 1 cannot be verified as accurate (confidence 200) [965AAC68], AccurateRip returned [061252AF]
Track 2 cannot be verified as accurate (confidence 200) [70FF13EA], AccurateRip returned [2FA1ADF9]
Track 3 cannot be verified as accurate (confidence 200) [80A1CA66], AccurateRip returned [21387934]
Track 4 cannot be verified as accurate (confidence 200) [84532A03], AccurateRip returned [DC81FEA2]
Track 5 cannot be verified as accurate (confidence 200) [26E90C5E], AccurateRip returned [19E540A0]
Track 6 cannot be verified as accurate (confidence 200) [3B199CFE], AccurateRip returned [1B3D0D6B]
Track 7 cannot be verified as accurate (confidence 200) [3831AD2F], AccurateRip returned [173509EA]
Track 8 cannot be verified as accurate (confidence 200) [785FDC38], AccurateRip returned [7E4D9F25]
Track 9 cannot be verified as accurate (confidence 200) [03151E49], AccurateRip returned [10071A12]
Track 10 cannot be verified as accurate (confidence 200) [4868C9EA], AccurateRip returned [6A036F6A]
Track 11 cannot be verified as accurate (confidence 200) [57D5D1B9], AccurateRip returned [560DE10C]
Track 12 cannot be verified as accurate (confidence 200) [12F5D1FB], AccurateRip returned [C7D5ED23]
Track 13 cannot be verified as accurate (confidence 200) [07F01540], AccurateRip returned [B796790D]
Track 14 cannot be verified as accurate (confidence 200) [BC127140], AccurateRip returned [29AEC401]
Track 15 cannot be verified as accurate (confidence 200) [10174981], AccurateRip returned [DE9EF233]
Track 16 cannot be verified as accurate (confidence 200) [26C3107C], AccurateRip returned [376E567C]
Track 17 cannot be verified as accurate (confidence 200) [DBA05F80], AccurateRip returned [4FD3066B]
Track 18 cannot be verified as accurate (confidence 200) [F5794784], AccurateRip returned [8C3A57EF]

No tracks could be verified as accurate
You may have a different pressing from the one(s) in the database

End of status report

Exact Audio Copy V0.99 prebeta 5 from 4. May 2009

EAC extraction logfile from 24. December 2010, 0:19

Blur / The Best Of TOCP-65596 (Japan Promo 2CD Edition) CD2

Used drive : PIONEER DVD-RW DVR-218L Adapter: 3 ID: 0

Read mode : Secure
Utilize accurate stream : Yes
Defeat audio cache : Yes
Make use of C2 pointers : No

Read offset correction : 6
Overread into Lead-In and Lead-Out : No
Fill up missing offset samples with silence : Yes
Delete leading and trailing silent blocks : No
Null samples used in CRC calculations : Yes
Used interface : Native Win32 interface for Win NT & 2000

Used output format : User Defined Encoder
Selected bitrate : 768 kBit/s
Quality : High
Add ID3 tag : No
Command line compressor : C:\Program Files (x86)\Exact Audio Copy\Flac\flac.exe
Additional command line options : -8 -V %s

TOC of the extracted CD

Track | Start | Length | Start sector | End sector
———————————————————
1 | 0:00.00 | 5:24.32 | 0 | 24331
2 | 5:24.32 | 4:21.03 | 24332 | 43909
3 | 9:45.35 | 4:08.62 | 43910 | 62571
4 | 13:54.22 | 3:00.48 | 62572 | 76119
5 | 16:54.70 | 3:27.12 | 76120 | 91656
6 | 20:22.07 | 3:31.65 | 91657 | 107546
7 | 23:53.72 | 6:09.65 | 107547 | 135286
8 | 30:03.62 | 3:09.38 | 135287 | 149499
9 | 33:13.25 | 6:20.27 | 149500 | 178026
10 | 39:33.52 | 4:09.00 | 178027 | 196701

Range status and errors

Selected range

Filename F:\Music\Blur\Albums\2000 – The Best Of TOCP-65595-96 (Japan Promo 2CD Edition)\The Best Of TOCP-65596 (Japan Edition) CD2.wav

Peak level 98.9 %
Range quality 100.0 %
Test CRC 90E70659
Copy CRC 90E70659
Copy OK

No errors occurred

AccurateRip summary

Track 1 cannot be verified as accurate (confidence 79) [4D01E86E], AccurateRip returned [5BC00024]
Track 2 cannot be verified as accurate (confidence 80) [DAA99D67], AccurateRip returned [29501C82]
Track 3 cannot be verified as accurate (confidence 79) [005F8FF7], AccurateRip returned [1BA72186]
Track 4 cannot be verified as accurate (confidence 79) [853CDDEA], AccurateRip returned [23908707]
Track 5 cannot be verified as accurate (confidence 79) [88A11C83], AccurateRip returned [B85AE769]
Track 6 cannot be verified as accurate (confidence 80) [407BBFEC], AccurateRip returned [13037491]
Track 7 cannot be verified as accurate (confidence 79) [ABD4F403], AccurateRip returned [AA617DDB]
Track 8 cannot be verified as accurate (confidence 81) [8A78F67A], AccurateRip returned [853CCCC6]
Track 9 cannot be verified as accurate (confidence 79) [62F825B6], AccurateRip returned [A81DD330]
Track 10 cannot be verified as accurate (confidence 79) [8306213C], AccurateRip returned [0E688772]

No tracks could be verified as accurate
You may have a different pressing from the one(s) in the database

End of status report

REM GENRE Britpop
REM DATE 2000
REM DISCID 08121B12
REM COMMENT “ExactAudioCopy v0.99pb5”
PERFORMER “Blur”
TITLE “The Best Of TOCP-65595 (Japan Edition) CD1”
FILE “The Best Of TOCP-65595 (Japan Edition) CD1.flac” WAVE
TRACK 01 AUDIO
TITLE “Beetlebum”
PERFORMER “Blur”
INDEX 01 00:00:00
TRACK 02 AUDIO
TITLE “Song 2”
PERFORMER “Blur”
INDEX 00 05:04:07
INDEX 01 05:05:50
TRACK 03 AUDIO
TITLE “There’s No Other Way”
PERFORMER “Blur”
INDEX 00 07:06:10
INDEX 01 07:07:50
TRACK 04 AUDIO
TITLE “The Universal”
PERFORMER “Blur”
INDEX 00 10:20:07
INDEX 01 10:21:47
TRACK 05 AUDIO
TITLE “Coffee & TV (Single Edit)”
PERFORMER “Blur”
INDEX 00 14:21:10
INDEX 01 14:21:70
TRACK 06 AUDIO
TITLE “Parklife”
PERFORMER “Blur”
INDEX 00 19:40:02
INDEX 01 19:40:40
TRACK 07 AUDIO
TITLE “End Of A Centuary”
PERFORMER “Blur”
INDEX 00 22:46:27
INDEX 01 22:47:70
TRACK 08 AUDIO
TITLE “No Distance Left To Run”
PERFORMER “Blur”
INDEX 00 25:33:25
INDEX 01 25:34:65
TRACK 09 AUDIO
TITLE “Tender”
PERFORMER “Blur”
INDEX 00 28:59:52
INDEX 01 29:01:17
TRACK 10 AUDIO
TITLE “Girls & Boys (Edit)”
PERFORMER “Blur”
INDEX 00 36:41:12
INDEX 01 36:42:52
TRACK 11 AUDIO
TITLE “Charmless Man”
PERFORMER “Blur”
INDEX 00 41:00:72
INDEX 01 41:01:40
TRACK 12 AUDIO
TITLE “She’s So High (Edit)”
PERFORMER “Blur”
INDEX 00 44:33:42
INDEX 01 44:35:10
TRACK 13 AUDIO
TITLE “Country House”
PERFORMER “Blur”
INDEX 00 48:23:32
INDEX 01 48:25:00
TRACK 14 AUDIO
TITLE “To The End (Edit)”
PERFORMER “Blur”
INDEX 00 52:21:15
INDEX 01 52:22:55
TRACK 15 AUDIO
TITLE “On Your Own”
PERFORMER “Blur”
INDEX 00 56:13:07
INDEX 01 56:14:47
TRACK 16 AUDIO
TITLE “This Is A Low”
PERFORMER “Blur”
INDEX 00 60:40:37
INDEX 01 60:41:62
TRACK 17 AUDIO
TITLE “For Tomorrow (Visit To Primrose Hill Extended)”
PERFORMER “Blur”
INDEX 00 65:44:07
INDEX 01 65:44:47
TRACK 18 AUDIO
TITLE “Music Is My Radar”
PERFORMER “Blur”
INDEX 00 71:45:22
INDEX 01 71:46:60

REM GENRE Rock
REM DATE 2000
REM DISCID 870A3E0A
REM COMMENT “ExactAudioCopy v0.99pb5”
PERFORMER “Blur”
TITLE “The Best Of TOCP-65596 (Japan Promo 2CD Edition) CD2”
FILE “The Best Of TOCP-65596 (Japan Edition) CD2.flac” WAVE
TRACK 01 AUDIO
TITLE “She’s So High (Live at Wembley Arena on 11 December 1999)”
PERFORMER “Blur”
INDEX 01 00:00:00
TRACK 02 AUDIO
TITLE “Girls & Boys (Live at Wembley Arena on 11 December 1999)”
PERFORMER “Blur”
INDEX 01 05:24:32
TRACK 03 AUDIO
TITLE “To The End (Live at Wembley Arena on 11 December 1999)”
PERFORMER “Blur”
INDEX 01 09:45:35
TRACK 04 AUDIO
TITLE “End Of A Century (Live at Wembley Arena on 11 December 1999)”
PERFORMER “Blur”
INDEX 01 13:54:22
TRACK 05 AUDIO
TITLE “Stereotypes (Live at Wembley Arena on 11 December 1999)”
PERFORMER “Blur”
INDEX 01 16:54:70
TRACK 06 AUDIO
TITLE “Charmless Man (Live at Wembley Arena on 11 December 1999)”
PERFORMER “Blur”
INDEX 01 20:22:07
TRACK 07 AUDIO
TITLE “Beetlebum (Live at Wembley Arena on 11 December 1999)”
PERFORMER “Blur”
INDEX 01 23:53:72
TRACK 08 AUDIO
TITLE “M.O.R. (Live at Wembley Arena on 11 December 1999)”
PERFORMER “Blur”
INDEX 01 30:03:62
TRACK 09 AUDIO
TITLE “Tender (Live at Wembley Arena on 11 December 1999)”
PERFORMER “Blur”
INDEX 01 33:13:25
TRACK 10 AUDIO
TITLE “No Distance Left To Run (Live at Wembley Arena on 11 December 1999)”
PERFORMER “Blur”
INDEX 01 39:33:52

Leave a Reply

Your email address will not be published. Required fields are marked *

This site uses Akismet to reduce spam. Learn how your comment data is processed.