Blur – Parklife (Promo, Special DJ Copy)




Artist: Blur
Year: 1994
Genre: Rock
Notes: Discogs
Add. Notes:
Cover incl.: Yes
Encoder: FLAC
Bitrate: ~900 kBit/s (44.1 kHz/16 Bit/s)
Log & Cue incl.: Yes
Size: 472,82 MB
Password: “slam” (without ” “)


All Downloads/Hosters are compatible

Download 1
Turbobit.net
Rapidgator.net
UploadByte.com
UploadEver.com
JustUpload.io
Download 2
Turbobit.net
Rapidgator.net
UploadByte.com
UploadEver.com
JustUpload.io
Download 3
Turbobit.net
Rapidgator.net
UploadByte.com
UploadEver.com
JustUpload.io

Tracklist:

1 - Girls & Boys (Pet Shop Boys Radio Edit) - 4:06
2 - Girls & Boys - 4:50
3 - Tracy Jacks - 4:20
4 - End Of A Century - 2:46
5 - Parklife - 3:05
6 - Bank Holiday - 1:42
7 - Badhead - 3:26
8 - The Debt Collector - 2:11
9 - Far Out - 1:41
10 - To The End - 4:05
11 - London Loves - 4:15
12 - Trouble In The Message Center - 4:10
13 - Clover Over Dover - 3:22
14 - Magic America - 3:38
15 - Jubilee - 2:48
16 - This Is A Low - 5:07
17 - Lot 105 - 1:20
18 - She's So High - 4:47
19 - There's No Other Way - 3:24
20 - For Tomorrow (Single Version) - 4:21
21 - Popscene - 3:14

EAC-Log, CUE-Sheed & NFO:

Click to open spoiler
Exact Audio Copy V0.99 prebeta 5 from 4. May 2009

EAC extraction logfile from 20. October 2010, 15:03

Blur / Parklife Special DJ Copy PCD-0476 (Japan Promo CD)

Used drive : PIONEER DVD-RW DVR-218L Adapter: 3 ID: 0

Read mode : Secure
Utilize accurate stream : Yes
Defeat audio cache : Yes
Make use of C2 pointers : No

Read offset correction : 6
Overread into Lead-In and Lead-Out : No
Fill up missing offset samples with silence : Yes
Delete leading and trailing silent blocks : No
Null samples used in CRC calculations : Yes
Used interface : Native Win32 interface for Win NT & 2000

Used output format : User Defined Encoder
Selected bitrate : 768 kBit/s
Quality : High
Add ID3 tag : No
Command line compressor : C:\Program Files\Exact Audio Copy\FLAC\FLAC.EXE
Additional command line options : -V -8 -T “artist=%a” -T “title=%t” -T “album=%g” -T “date=%y” -T “tracknumber=%n” -T “genre=%m” %s

TOC of the extracted CD

Track | Start | Length | Start sector | End sector
———————————————————
1 | 0:00.00 | 4:05.67 | 0 | 18441
2 | 4:05.67 | 4:50.08 | 18442 | 40199
3 | 8:56.00 | 4:20.37 | 40200 | 59736
4 | 13:16.37 | 2:45.58 | 59737 | 72169
5 | 16:02.20 | 3:05.30 | 72170 | 86074
6 | 19:07.50 | 1:42.22 | 86075 | 93746
7 | 20:49.72 | 3:26.03 | 93747 | 109199
8 | 24:16.00 | 2:10.70 | 109200 | 119019
9 | 26:26.70 | 1:41.20 | 119020 | 126614
10 | 28:08.15 | 4:04.55 | 126615 | 144969
11 | 32:12.70 | 4:15.00 | 144970 | 164094
12 | 36:27.70 | 4:09.62 | 164095 | 182831
13 | 40:37.57 | 3:22.28 | 182832 | 198009
14 | 44:00.10 | 3:38.02 | 198010 | 214361
15 | 47:38.12 | 2:48.08 | 214362 | 226969
16 | 50:26.20 | 5:07.07 | 226970 | 250001
17 | 55:33.27 | 1:19.68 | 250002 | 255994
18 | 56:53.20 | 4:46.65 | 255995 | 277509
19 | 61:40.10 | 3:23.67 | 277510 | 292801
20 | 65:04.02 | 4:20.38 | 292802 | 312339
21 | 69:24.40 | 3:13.45 | 312340 | 326859

Range status and errors

Selected range

Filename E:\Music\Blur\Albums\1994 – Parklife Special DJ Copy PCD-0476 (Japan Promo CD)\Parklife Special DJ Copy PCD-0476 (Japan Promo CD).wav

Peak level 100.0 %
Range quality 100.0 %
Test CRC C8666786
Copy CRC C8666786
Copy OK

No errors occurred

AccurateRip summary

Track 1 not present in database
Track 2 not present in database
Track 3 not present in database
Track 4 not present in database
Track 5 not present in database
Track 6 not present in database
Track 7 not present in database
Track 8 not present in database
Track 9 not present in database
Track 10 not present in database
Track 11 not present in database
Track 12 not present in database
Track 13 not present in database
Track 14 not present in database
Track 15 not present in database
Track 16 not present in database
Track 17 not present in database
Track 18 not present in database
Track 19 not present in database
Track 20 not present in database
Track 21 not present in database

None of the tracks are present in the AccurateRip database

End of status report

REM GENRE BritPop
REM DATE 1994
REM DISCID 47110615
REM COMMENT ExactAudioCopy v0.99pb5
PERFORMER “Blur”
TITLE “Parklife Special DJ Copy PCD-0476 (Japan Promo CD)”
FILE “Parklife Special DJ Copy PCD-0476 (Japan Promo CD).flac” WAVE
TRACK 01 AUDIO
TITLE “Girls & Boys (Pet Shop Boys Radio Edit)”
INDEX 01 00:00:00
TRACK 02 AUDIO
TITLE “Girls & Boys”
INDEX 00 04:04:62
INDEX 01 04:05:67
TRACK 03 AUDIO
TITLE “Tracy Jacks”
INDEX 01 08:56:00
TRACK 04 AUDIO
TITLE “End of a Century”
INDEX 01 13:16:37
TRACK 05 AUDIO
TITLE “Parklife”
INDEX 00 16:01:30
INDEX 01 16:02:20
TRACK 06 AUDIO
TITLE “Bank Holiday”
INDEX 01 19:07:50
TRACK 07 AUDIO
TITLE “Badhead”
INDEX 01 20:49:72
TRACK 08 AUDIO
TITLE “The Debt Collector”
INDEX 01 24:16:00
TRACK 09 AUDIO
TITLE “Far Out”
INDEX 01 26:26:70
TRACK 10 AUDIO
TITLE “To The End”
INDEX 00 28:07:52
INDEX 01 28:08:15
TRACK 11 AUDIO
TITLE “London Loves”
INDEX 01 32:12:70
TRACK 12 AUDIO
TITLE “Trouble in the Message Center”
INDEX 01 36:27:70
TRACK 13 AUDIO
TITLE “Clover Over Dover”
INDEX 01 40:37:57
TRACK 14 AUDIO
TITLE “Magic America”
INDEX 01 44:00:10
TRACK 15 AUDIO
TITLE “Jubilee”
INDEX 01 47:38:12
TRACK 16 AUDIO
TITLE “This is a Low”
INDEX 01 50:26:20
TRACK 17 AUDIO
TITLE “Lot 105”
INDEX 01 55:33:27
TRACK 18 AUDIO
TITLE “She’s So High”
INDEX 00 56:51:40
INDEX 01 56:53:20
TRACK 19 AUDIO
TITLE “There’s No Other Way”
INDEX 00 61:38:00
INDEX 01 61:40:10
TRACK 20 AUDIO
TITLE “For Tomorrow (Single Version)”
INDEX 00 65:02:10
INDEX 01 65:04:02
TRACK 21 AUDIO
TITLE “Popscene”
INDEX 00 69:22:60
INDEX 01 69:24:40

Leave a Reply

Your email address will not be published. Required fields are marked *

This site uses Akismet to reduce spam. Learn how your comment data is processed.