Blur – Parklife (Japanese Edition)




Artist: Blur
Year: 1994
Genre: Rock
Notes: Discogs
Add. Notes: Japanese Edition
Cover incl.: Yes
Encoder: FLAC
Bitrate: ~900 kBit/s (44.1 kHz/16 Bit/s)
Log & Cue incl.: Yes
Size: 413,1 MB
Password: “slam” (without ” “)


All Downloads/Hosters are compatible

Download 1
Turbobit.net
Rapidgator.net
UploadByte.com
UploadEver.com
JustUpload.io
Download 2
Turbobit.net
Rapidgator.net
UploadByte.com
UploadEver.com
JustUpload.io
Download 3
Turbobit.net
Rapidgator.net
UploadByte.com
UploadEver.com
JustUpload.io

Tracklist:

1 - Girls & Boys - 4:51
2 - Tracy Jacks - 4:20
3 - End Of A Century - 2:45
4 - Parklife - 3:05
5 - Bank Holiday - 1:42
6 - Badhead - 3:25
7 - The Debt Collector - 2:10
8 - Far Out - 1:41
9 - To The End - 4:04
10 - London Loves - 4:15
11 - Trouble In The Message Center - 4:09
12 - Clover Over Dover - 3:22
13 - Magic America - 3:38
14 - Jubilee - 2:47
15 - This Is A Low - 5:07
16 - Lot 105 - 1:18
17 - Girls & Boys (Pet Shop Boys 12" Remix) - 7:16

EAC-Log, CUE-Sheed & NFO:

Click to open spoiler
Exact Audio Copy V0.99 prebeta 5 from 4. May 2009

EAC extraction logfile from 13. September 2009, 0:22

Blur / Parklife (Japan TOCP-8226)

Used drive : _NEC DVD_RW ND-3500AG Adapter: 1 ID: 1

Read mode : Secure
Utilize accurate stream : Yes
Defeat audio cache : Yes
Make use of C2 pointers : No

Read offset correction : 48
Overread into Lead-In and Lead-Out : No
Fill up missing offset samples with silence : Yes
Delete leading and trailing silent blocks : No
Null samples used in CRC calculations : Yes
Used interface : Installed external ASPI interface

Used output format : Internal WAV Routines
Sample format : 44.100 Hz; 16 Bit; Stereo

TOC of the extracted CD

Track | Start | Length | Start sector | End sector
———————————————————
1 | 0:00.00 | 4:51.17 | 0 | 21841
2 | 4:51.17 | 4:20.08 | 21842 | 41349
3 | 9:11.25 | 2:45.65 | 41350 | 53789
4 | 11:57.15 | 3:05.20 | 53790 | 67684
5 | 15:02.35 | 1:42.30 | 67685 | 75364
6 | 16:44.65 | 3:25.70 | 75365 | 90809
7 | 20:10.60 | 2:10.65 | 90810 | 100624
8 | 22:21.50 | 1:41.15 | 100625 | 108214
9 | 24:02.65 | 4:04.72 | 108215 | 126586
10 | 28:07.62 | 4:15.20 | 126587 | 145731
11 | 32:23.07 | 4:09.45 | 145732 | 164451
12 | 36:32.52 | 3:22.28 | 164452 | 179629
13 | 39:55.05 | 3:38.12 | 179630 | 195991
14 | 43:33.17 | 2:47.60 | 195992 | 208576
15 | 46:21.02 | 5:07.23 | 208577 | 231624
16 | 51:28.25 | 1:18.05 | 231625 | 237479
17 | 52:46.30 | 7:16.37 | 237480 | 270216

Range status and errors

Selected range

Filename C:\My Music\Blur\Parklife (Japan TOCP-8226)\Blur – Parklife (Japan TOCP-8226).wav

Peak level 100.0 %
Range quality 99.9 %
Test CRC F1CCBCE2
Copy CRC F1CCBCE2
Copy OK

No errors occurred

AccurateRip summary

Track 1 not present in database
Track 2 not present in database
Track 3 not present in database
Track 4 not present in database
Track 5 not present in database
Track 6 not present in database
Track 7 not present in database
Track 8 not present in database
Track 9 not present in database
Track 10 not present in database
Track 11 not present in database
Track 12 not present in database
Track 13 not present in database
Track 14 not present in database
Track 15 not present in database
Track 16 not present in database
Track 17 not present in database

None of the tracks are present in the AccurateRip database

End of status report

REM GENRE BritPop
REM DATE 1994
REM DISCID F00E1211
REM COMMENT “ExactAudioCopy v0.99pb5”
PERFORMER “Blur”
TITLE “Parklife (Japan TOCP-8226)”
FILE “Blur – Parklife (Japan TOCP-8226).flac” WAVE
TRACK 01 AUDIO
TITLE “Girls & Boys”
PERFORMER “Blur”
INDEX 01 00:00:00
TRACK 02 AUDIO
TITLE “Tracy Jacks”
PERFORMER “Blur”
INDEX 01 04:51:17
TRACK 03 AUDIO
TITLE “End Of A Century”
PERFORMER “Blur”
INDEX 01 09:11:25
TRACK 04 AUDIO
TITLE “Parklife (Starring Phil Daniels)”
PERFORMER “Blur”
INDEX 00 11:57:14
INDEX 01 11:57:15
TRACK 05 AUDIO
TITLE “Bank Holiday”
PERFORMER “Blur”
INDEX 01 15:02:35
TRACK 06 AUDIO
TITLE “Badhead”
PERFORMER “Blur”
INDEX 00 16:44:64
INDEX 01 16:44:65
TRACK 07 AUDIO
TITLE “The Debt Collector”
PERFORMER “Blur”
INDEX 01 20:10:60
TRACK 08 AUDIO
TITLE “Far Out”
PERFORMER “Blur”
INDEX 01 22:21:50
TRACK 09 AUDIO
TITLE “To The End”
PERFORMER “Blur”
INDEX 01 24:02:65
TRACK 10 AUDIO
TITLE “London Loves”
PERFORMER “Blur”
INDEX 01 28:07:62
TRACK 11 AUDIO
TITLE “Trouble In The Message Centre”
PERFORMER “Blur”
INDEX 01 32:23:07
TRACK 12 AUDIO
TITLE “Clover Over Dover”
PERFORMER “Blur”
INDEX 00 36:32:51
INDEX 01 36:32:52
TRACK 13 AUDIO
TITLE “Magic America”
PERFORMER “Blur”
INDEX 01 39:55:05
TRACK 14 AUDIO
TITLE “Jubilee”
PERFORMER “Blur”
INDEX 01 43:33:17
TRACK 15 AUDIO
TITLE “This Is A Low”
PERFORMER “Blur”
INDEX 01 46:21:02
TRACK 16 AUDIO
TITLE “Lot 105”
PERFORMER “Blur”
INDEX 01 51:28:25
TRACK 17 AUDIO
TITLE “Girls & Boys (Pet Shop Boys 12′ Remix)”
PERFORMER “Blur”
INDEX 01 52:46:30

Leave a Reply

Your email address will not be published. Required fields are marked *

This site uses Akismet to reduce spam. Learn how your comment data is processed.