Blur – Modern Life Is Rubbish




Artist: Blur
Year: 1993
Genre: Rock
Notes: Discogs
Add. Notes:
Encoder: FLAC
Bitrate: ~900 kBit/s (44.1 kHz/16 Bit/s)
Bin/Cue incl.: Yes
Size: 407,92 MB
Password: “slam” (without ” “)


http://www.share-online.biz/dl/578QDVRPJ1C4

https://rapidgator.net/file/cece9e8b258ee2ee2b9764b57a93ff94

https://uploadbyte.com/0dtsj5qgs4ce

https://uploadever.com/jvrd2p6rc2bl

https://justupload.io/w32lwz68bgor

Tracklist:

1 - For Tomorrow - 4:20
2 - Advert - 3:45
3 - Colin Zeal - 3:16
4 - Pressure On Julian - 3:31
5 - Star Shaped - 3:26
6 - Blue Jeans - 3:54
7a - Chemical World - 4:02
7b - Intermission - 2:27
8 - Sunday Sunday - 2:38
9 - Oily Water - 5:00
10 - Miss America - 5:34
11 - Villa Rosie - 3:55
12 - Coping - 3:24
13 - Turn It Up - 3:22
14a - Resigned - 5:13
14b - Commercial Break - 0:56

EAC-Log, CUE-Sheed & NFO:

Click to open spoiler
Exact Audio Copy V0.99 prebeta 5 from 4. May 2009

EAC extraction logfile from 12. February 2010, 12:29

Blur / Modern Life Is Rubbish FOODCD9 (UK Edition)

Used drive : PIONEER DVD-RW DVR-218L Adapter: 3 ID: 0

Read mode : Secure
Utilize accurate stream : Yes
Defeat audio cache : Yes
Make use of C2 pointers : No

Read offset correction : 6
Overread into Lead-In and Lead-Out : No
Fill up missing offset samples with silence : Yes
Delete leading and trailing silent blocks : No
Null samples used in CRC calculations : Yes
Used interface : Native Win32 interface for Win NT & 2000

Used output format : User Defined Encoder
Selected bitrate : 896 kBit/s
Quality : High
Add ID3 tag : No
Command line compressor : C:\Program Files\Exact Audio Copy\FLAC\FLAC.EXE
Additional command line options : -8 -V -T “ARTIST=%a” -T “TITLE=%t” -T “ALBUM=%g” -T “DATE=%y” -T “TRACKNUMBER=%n” -T “GENRE=%m” -T “COMMENT=%e” %s -o %d

TOC of the extracted CD

Track | Start | Length | Start sector | End sector
———————————————————
1 | 0:00.00 | 4:20.10 | 0 | 19509
2 | 4:20.10 | 3:45.22 | 19510 | 36406
3 | 8:05.32 | 3:16.10 | 36407 | 51116
4 | 11:21.42 | 3:31.63 | 51117 | 67004
5 | 14:53.30 | 3:26.50 | 67005 | 82504
6 | 18:20.05 | 3:54.50 | 82505 | 100104
7 | 22:14.55 | 6:33.45 | 100105 | 129624
8 | 28:48.25 | 2:38.17 | 129625 | 141491
9 | 31:26.42 | 5:00.55 | 141492 | 164046
10 | 36:27.22 | 5:34.70 | 164047 | 189166
11 | 42:02.17 | 3:55.03 | 189167 | 206794
12 | 45:57.20 | 3:24.60 | 206795 | 222154
13 | 49:22.05 | 3:22.25 | 222155 | 237329
14 | 52:44.30 | 6:11.05 | 237330 | 265159

Range status and errors

Selected range

Filename E:\Music\Blur\Albums\1993 – Modern Life Is Rubbish FOODCD9 (UK Edition)\Blur – Modern Life Is Rubbish FOODCD9 (UK Edition).wav

Peak level 100.0 %
Range quality 100.0 %
Test CRC 8F40D4A3
Copy CRC 8F40D4A3
Copy OK

No errors occurred

AccurateRip summary

Track 1 accurately ripped (confidence 56) [D4C9CA76]
Track 2 accurately ripped (confidence 56) [B8219D70]
Track 3 accurately ripped (confidence 56) [C4E5FCDA]
Track 4 accurately ripped (confidence 55) [E6CCBD0D]
Track 5 accurately ripped (confidence 55) [CA5AAF6C]
Track 6 accurately ripped (confidence 55) [96306FA5]
Track 7 accurately ripped (confidence 53) [B9AB7744]
Track 8 accurately ripped (confidence 56) [25706865]
Track 9 accurately ripped (confidence 55) [FB0ADE20]
Track 10 accurately ripped (confidence 54) [A7379EF6]
Track 11 accurately ripped (confidence 56) [C61F943A]
Track 12 accurately ripped (confidence 55) [E1289EAF]
Track 13 accurately ripped (confidence 54) [FEF3C90A]
Track 14 accurately ripped (confidence 52) [82D7E29A]

All tracks accurately ripped

End of status report

REM GENRE BritPop
REM DATE 1993
REM DISCID D80DCF0E
REM COMMENT “ExactAudioCopy v0.99pb5”
PERFORMER “Blur”
TITLE “Modern Life Is Rubbish FOODCD9 (UK Edition)”
FILE “Blur – Modern Life Is Rubbish FOODCD9 (UK Edition).flac” WAVE
TRACK 01 AUDIO
TITLE “For Tomorrow”
PERFORMER “Blur”
INDEX 01 00:00:00
TRACK 02 AUDIO
TITLE “Advert”
PERFORMER “Blur”
INDEX 00 04:18:22
INDEX 01 04:20:10
TRACK 03 AUDIO
TITLE “Colin Zeal”
PERFORMER “Blur”
INDEX 00 08:04:02
INDEX 01 08:05:32
TRACK 04 AUDIO
TITLE “Pressure on Julian”
PERFORMER “Blur”
INDEX 00 11:20:25
INDEX 01 11:21:42
TRACK 05 AUDIO
TITLE “Star Shaped”
PERFORMER “Blur”
INDEX 00 14:51:60
INDEX 01 14:53:30
TRACK 06 AUDIO
TITLE “Blue Jeans”
PERFORMER “Blur”
INDEX 00 18:18:72
INDEX 01 18:20:05
TRACK 07 AUDIO
TITLE “Chemical World + Intermission”
PERFORMER “Blur”
INDEX 00 22:13:50
INDEX 01 22:14:55
TRACK 08 AUDIO
TITLE “Sunday Sunday”
PERFORMER “Blur”
INDEX 00 28:46:32
INDEX 01 28:48:25
TRACK 09 AUDIO
TITLE “Oily Water”
PERFORMER “Blur”
INDEX 00 31:25:07
INDEX 01 31:26:42
TRACK 10 AUDIO
TITLE “Miss America”
PERFORMER “Blur”
INDEX 00 36:25:72
INDEX 01 36:27:22
TRACK 11 AUDIO
TITLE “Villa Rosie”
PERFORMER “Blur”
INDEX 00 42:01:35
INDEX 01 42:02:17
TRACK 12 AUDIO
TITLE “Coping”
PERFORMER “Blur”
INDEX 00 45:56:37
INDEX 01 45:57:20
TRACK 13 AUDIO
TITLE “Turn It Up”
PERFORMER “Blur”
INDEX 00 49:20:47
INDEX 01 49:22:05
TRACK 14 AUDIO
TITLE “Resigned + Commercial Break”
PERFORMER “Blur”
INDEX 00 52:43:15
INDEX 01 52:44:30

Leave a Reply

Your email address will not be published. Required fields are marked *

This site uses Akismet to reduce spam. Learn how your comment data is processed.