Blur – Modern Life Is Rubbish (Japanese Edition)




Artist: Blur
Year: 1993
Genre: Rock
Notes: Discogs
Add. Notes: Japanese Edition
Encoder: FLAC
Bitrate: ~900 kBit/s (44.1 kHz/16 Bit/s)
Bin/Cue incl.: Yes
Size: 473,08 MB
Password: “slam” (without ” “)


http://www.share-online.biz/dl/ZCFCMWRP4F

https://rapidgator.net/file/1f0795d8cf333ce97425edc051570fa1

https://uploadbyte.com/m3xa36zsi1w9

https://uploadever.com/zo3dqtli978o

https://justupload.io/hnzapzue27m0

Tracklist:

1 - For Tomorrow - 4:21
2 - Advert - 3:45
3 - Colin Zeal - 3:16
4 - Pressure On Julian - 3:32
5 - Star Shaped - 3:27
6 - Blue Jeans - 3:55
7 - Chemical World - Intermission - 6:34
8 - Sunday Sunday - 2:38
9 - Oily Water - 5:01
10 - Miss America - 5:35
11 - Villa Rosie - 3:55
12 - Coping - 3:25
13 - Turn It Up - 3:22
14 - Resigned - Commercial Break - 6:15
15 - Young And Lovely - 5:03
16 - Popscene - 3:13

EAC-Log, CUE-Sheed & NFO:

Click to open spoiler
Exact Audio Copy V0.99 prebeta 5 from 4. May 2009

EAC extraction logfile from 12. February 2010, 13:53

Blur / Modern Life Is Rubbish TOCP-7743 (Japan Edition)

Used drive : PIONEER DVD-RW DVR-218L Adapter: 3 ID: 0

Read mode : Secure
Utilize accurate stream : Yes
Defeat audio cache : Yes
Make use of C2 pointers : No

Read offset correction : 6
Overread into Lead-In and Lead-Out : No
Fill up missing offset samples with silence : Yes
Delete leading and trailing silent blocks : No
Null samples used in CRC calculations : Yes
Used interface : Native Win32 interface for Win NT & 2000

Used output format : User Defined Encoder
Selected bitrate : 896 kBit/s
Quality : High
Add ID3 tag : No
Command line compressor : C:\Program Files\Exact Audio Copy\FLAC\FLAC.EXE
Additional command line options : -8 -V -T “ARTIST=%a” -T “TITLE=%t” -T “ALBUM=%g” -T “DATE=%y” -T “TRACKNUMBER=%n” -T “GENRE=%m” -T “COMMENT=%e” %s -o %d

TOC of the extracted CD

Track | Start | Length | Start sector | End sector
———————————————————
1 | 0:00.00 | 4:20.40 | 0 | 19539
2 | 4:20.40 | 3:45.22 | 19540 | 36436
3 | 8:05.62 | 3:16.10 | 36437 | 51146
4 | 11:21.72 | 3:31.63 | 51147 | 67034
5 | 14:53.60 | 3:26.50 | 67035 | 82534
6 | 18:20.35 | 3:54.50 | 82535 | 100134
7 | 22:15.10 | 6:33.45 | 100135 | 129654
8 | 28:48.55 | 2:38.17 | 129655 | 141521
9 | 31:26.72 | 5:00.55 | 141522 | 164076
10 | 36:27.52 | 5:34.70 | 164077 | 189196
11 | 42:02.47 | 3:55.03 | 189197 | 206824
12 | 45:57.50 | 3:24.60 | 206825 | 222184
13 | 49:22.35 | 3:22.25 | 222185 | 237359
14 | 52:44.60 | 6:15.15 | 237360 | 265499
15 | 59:00.00 | 5:03.12 | 265500 | 288236
16 | 64:03.12 | 3:13.28 | 288237 | 302739

Range status and errors

Selected range

Filename E:\Music\Blur\Albums\1993 – Modern Life Is Rubbish TOCP-7743 (Japan Edition)\Blur – Modern Life Is Rubbish TOCP-7743 (Japan Edition).wav

Peak level 100.0 %
Range quality 100.0 %
Test CRC F9371E6A
Copy CRC F9371E6A
Copy OK

No errors occurred

AccurateRip summary

Track 1 accurately ripped (confidence 2) [A15C7CCA]
Track 2 accurately ripped (confidence 2) [6EA35638]
Track 3 accurately ripped (confidence 2) [599C75EE]
Track 4 accurately ripped (confidence 2) [6CB992D9]
Track 5 accurately ripped (confidence 2) [F1FA9C90]
Track 6 accurately ripped (confidence 2) [87540C5D]
Track 7 accurately ripped (confidence 2) [ACAC7B1C]
Track 8 accurately ripped (confidence 2) [4C8139B1]
Track 9 accurately ripped (confidence 2) [8F54FF68]
Track 10 accurately ripped (confidence 2) [6A16EC0A]
Track 11 accurately ripped (confidence 2) [74AD92F6]
Track 12 accurately ripped (confidence 2) [C86F584B]
Track 13 accurately ripped (confidence 2) [8C0ADBB2]
Track 14 accurately ripped (confidence 2) [EF6608A2]
Track 15 accurately ripped (confidence 2) [06E6CEFD]
Track 16 accurately ripped (confidence 2) [0F27320D]

All tracks accurately ripped

End of status report

REM GENRE BritPop
REM DATE 1993
REM DISCID FB0FC410
REM COMMENT “ExactAudioCopy v0.99pb5”
PERFORMER “Blur”
TITLE “Modern Life Is Rubbish TOCP-7743 (Japan Edition)”
FILE “Blur – Modern Life Is Rubbish TOCP-7743 (Japan Edition).flac” WAVE
TRACK 01 AUDIO
TITLE “For Tomorrow”
PERFORMER “Blur”
INDEX 01 00:00:00
TRACK 02 AUDIO
TITLE “Advert”
PERFORMER “Blur”
INDEX 00 04:19:12
INDEX 01 04:20:40
TRACK 03 AUDIO
TITLE “Colin Zeal”
PERFORMER “Blur”
INDEX 00 08:04:62
INDEX 01 08:05:62
TRACK 04 AUDIO
TITLE “Pressure On Julian”
PERFORMER “Blur”
INDEX 00 11:21:22
INDEX 01 11:21:72
TRACK 05 AUDIO
TITLE “Star Shaped”
PERFORMER “Blur”
INDEX 00 14:52:45
INDEX 01 14:53:60
TRACK 06 AUDIO
TITLE “Blue Jeans”
PERFORMER “Blur”
INDEX 00 18:20:02
INDEX 01 18:20:35
TRACK 07 AUDIO
TITLE “Chemical World + Intermission”
PERFORMER “Blur”
INDEX 00 22:14:32
INDEX 01 22:15:10
INDEX 02 26:18:72
TRACK 08 AUDIO
TITLE “Sunday Sunday”
PERFORMER “Blur”
INDEX 00 28:47:17
INDEX 01 28:48:55
TRACK 09 AUDIO
TITLE “Oily Water”
PERFORMER “Blur”
INDEX 00 31:25:67
INDEX 01 31:26:72
TRACK 10 AUDIO
TITLE “Miss America”
PERFORMER “Blur”
INDEX 00 36:26:57
INDEX 01 36:27:52
TRACK 11 AUDIO
TITLE “Villa Rosie”
PERFORMER “Blur”
INDEX 00 42:02:17
INDEX 01 42:02:47
TRACK 12 AUDIO
TITLE “Coping”
PERFORMER “Blur”
INDEX 00 45:57:25
INDEX 01 45:57:50
TRACK 13 AUDIO
TITLE “Turn It Up”
PERFORMER “Blur”
INDEX 00 49:21:55
INDEX 01 49:22:35
TRACK 14 AUDIO
TITLE “Resigned + Commecial Break”
PERFORMER “Blur”
INDEX 00 52:43:72
INDEX 01 52:44:60
INDEX 02 57:59:45
TRACK 15 AUDIO
TITLE “Young And Lovely”
PERFORMER “Blur”
INDEX 00 58:55:25
INDEX 01 59:00:00
TRACK 16 AUDIO
TITLE “Popscene”
PERFORMER “Blur”
INDEX 00 64:01:37
INDEX 01 64:03:12

Leave a Reply

Your email address will not be published. Required fields are marked *

Enter the text from the image below
 

This site uses Akismet to reduce spam. Learn how your comment data is processed.