Blur – Live at the Budokan




Artist: Blur
Year: 1996
Genre: Rock
Notes: Discogs
Add. Notes:
Cover incl.: Yes
Encoder: FLAC
Bitrate: ~900 kBit/s (44.1 kHz/16 Bit/s)
Log & Cue incl.: Yes
Size: 675,5 MB
Password: “slam” (without ” “)


All Downloads/Hosters are compatible

Download 1
Turbobit.net
Rapidgator.net
UploadEver.com
KatFile.com
UsersDrive.com
Download 2
Turbobit.net
Rapidgator.net
UploadEver.com
KatFile.com
UsersDrive.com
Download 3
Turbobit.net
Rapidgator.net
UploadEver.com
KatFile.com
UsersDrive.com

Tracklist:

1-01 - The Great Escape - 1:35
1-02 - Jubilee - 3:11
1-03 - Popscene - 3:09
1-04 - End Of A Century - 2:54
1-05 - Tracy Jacks - 4:07
1-06 - Mr. Robinson's Quango - 4:59
1-07 - To The End - 4:16
1-08 - Fade Away - 4:18
1-09 - It Could Be You - 3:11
1-10 - Stereotypes - 3:27
1-11 - She's So High - 5:23
1-12 - Girls & Boys - 4:50
1-13 - Advert - 3:26
1-14 - Intermission - 1:37
1-15 - Bank Holiday - 1:49
1-16 - For Tomorrow - 6:24
1-17 - Country House - 4:38
1-18 - This Is A Low - 5:10
1-19 - Supa Shoppa - 3:23
2-01 - Yuko And Hiro - 4:42
2-02 - He Thought Of Cars - 5:03
2-03 - Coping - 3:23
2-04 - Globe Alone - 2:43
2-05 - Parklife - 3:37
2-06 - The Universal - 5:09

EAC-Log, CUE-Sheed & NFO:

Click to open spoiler
Exact Audio Copy V0.99 prebeta 4 from 23. January 2008

EAC extraction logfile from 4. April 2009, 1:03

Blur / Live at the Budokan (Japan TOCP-8906) CD1

Used drive : _NEC DVD_RW ND-3500AG Adapter: 1 ID: 1

Read mode : Secure
Utilize accurate stream : Yes
Defeat audio cache : Yes
Make use of C2 pointers : No

Read offset correction : 48
Overread into Lead-In and Lead-Out : No
Fill up missing offset samples with silence : Yes
Delete leading and trailing silent blocks : No
Null samples used in CRC calculations : Yes
Used interface : Installed external ASPI interface

Used output format : User Defined Encoder
Selected bitrate : 768 kBit/s
Quality : High
Add ID3 tag : No
Command line compressor : C:\Program Files\Exact Audio Copy\FLAC\FLAC.EXE
Additional command line options : -V -8 -T “artist=%a” -T “title=%t” -T “album=%g” -T “date=%y” -T “tracknumber=%n” -T “genre=%m” %s

TOC of the extracted CD

Track | Start | Length | Start sector | End sector
———————————————————
1 | 0:00.00 | 1:35.05 | 0 | 7129
2 | 1:35.05 | 3:11.15 | 7130 | 21469
3 | 4:46.20 | 3:09.12 | 21470 | 35656
4 | 7:55.32 | 2:54.10 | 35657 | 48716
5 | 10:49.42 | 4:07.38 | 48717 | 67279
6 | 14:57.05 | 5:00.00 | 67280 | 89779
7 | 19:57.05 | 4:16.55 | 89780 | 109034
8 | 24:13.60 | 4:18.52 | 109035 | 128436
9 | 28:32.37 | 3:11.55 | 128437 | 142816
10 | 31:44.17 | 3:27.05 | 142817 | 158346
11 | 35:11.22 | 5:23.73 | 158347 | 182644
12 | 40:35.20 | 4:50.10 | 182645 | 204404
13 | 45:25.30 | 3:26.60 | 204405 | 219914
14 | 48:52.15 | 1:37.15 | 219915 | 227204
15 | 50:29.30 | 1:49.25 | 227205 | 235404
16 | 52:18.55 | 6:24.32 | 235405 | 264236
17 | 58:43.12 | 4:38.63 | 264237 | 285149
18 | 63:22.00 | 5:10.12 | 285150 | 308411
19 | 68:32.12 | 3:23.13 | 308412 | 323649

Range status and errors

Selected range

Filename C:\My Music\Blur\Live at the Budokan\Blur – Live at the Budokan (Japan TOCP-8906) CD1.wav

Peak level 99.4 %
Range quality 100.0 %
Test CRC 9259DB59
Copy CRC 9259DB59
Copy OK

No errors occurred

AccurateRip summary

Track 1 accurately ripped (confidence 4) [6F5CD215]
Track 2 accurately ripped (confidence 4) [7D63EBD8]
Track 3 accurately ripped (confidence 4) [F66748AA]
Track 4 accurately ripped (confidence 4) [5CCAA407]
Track 5 accurately ripped (confidence 4) [E41B0D9A]
Track 6 accurately ripped (confidence 4) [195C8765]
Track 7 accurately ripped (confidence 4) [5435869E]
Track 8 accurately ripped (confidence 4) [D792B5E0]
Track 9 accurately ripped (confidence 4) [830427FF]
Track 10 accurately ripped (confidence 4) [E0B4D794]
Track 11 accurately ripped (confidence 4) [ADB0EDEC]
Track 12 accurately ripped (confidence 4) [E964338D]
Track 13 accurately ripped (confidence 4) [48081F9E]
Track 14 accurately ripped (confidence 4) [54FE2238]
Track 15 accurately ripped (confidence 4) [3944797D]
Track 16 accurately ripped (confidence 4) [92E49E93]
Track 17 accurately ripped (confidence 4) [2160D62D]
Track 18 accurately ripped (confidence 5) [529A7589]
Track 19 accurately ripped (confidence 5) [AF7AA0AD]

All tracks accurately ripped

End of status report

Exact Audio Copy V0.99 prebeta 4 from 23. January 2008

EAC extraction logfile from 4. April 2009, 2:03

Blur / Live at the Budokan (Japan TOCP-8907) CD2

Used drive : _NEC DVD_RW ND-3500AG Adapter: 1 ID: 1

Read mode : Secure
Utilize accurate stream : Yes
Defeat audio cache : Yes
Make use of C2 pointers : No

Read offset correction : 48
Overread into Lead-In and Lead-Out : No
Fill up missing offset samples with silence : Yes
Delete leading and trailing silent blocks : No
Null samples used in CRC calculations : Yes
Used interface : Installed external ASPI interface

Used output format : User Defined Encoder
Selected bitrate : 768 kBit/s
Quality : High
Add ID3 tag : No
Command line compressor : C:\Program Files\Exact Audio Copy\FLAC\FLAC.EXE
Additional command line options : -V -8 -T “artist=%a” -T “title=%t” -T “album=%g” -T “date=%y” -T “tracknumber=%n” -T “genre=%m” %s

TOC of the extracted CD

Track | Start | Length | Start sector | End sector
———————————————————
1 | 0:00.00 | 4:42.07 | 0 | 21156
2 | 4:42.07 | 5:03.03 | 21157 | 43884
3 | 9:45.10 | 3:23.45 | 43885 | 59154
4 | 13:08.55 | 2:43.65 | 59155 | 71444
5 | 15:52.45 | 3:37.42 | 71445 | 87761
6 | 19:30.12 | 5:09.08 | 87762 | 110944

Range status and errors

Selected range

Filename C:\My Music\Blur\Live at the Budokan\Blur – Live at the Budokan (Japan TOCP-8907) CD2.wav

Peak level 99.4 %
Range quality 100.0 %
Test CRC 08AD363D
Copy CRC 08AD363D
Copy OK

No errors occurred

AccurateRip summary

Track 1 accurately ripped (confidence 5) [DF24585F]
Track 2 accurately ripped (confidence 5) [744D50B5]
Track 3 accurately ripped (confidence 5) [33890769]
Track 4 accurately ripped (confidence 5) [A87CC7EA]
Track 5 accurately ripped (confidence 5) [866E4D94]
Track 6 accurately ripped (confidence 5) [08FB0013]

All tracks accurately ripped

End of status report

REM GENRE Live
REM DATE 1995
REM DISCID 0F10DB13
REM COMMENT “ExactAudioCopy v0.99pb4”
PERFORMER “Blur”
TITLE “Live at the Budokan (Japan TOCP-8906) CD1”
FILE “Blur – Live at the Budokan (Japan TOCP-8906) CD1.flac” WAVE
TRACK 01 AUDIO
TITLE “The Great Escape (Live at the Budokan 8th November 1995)”
PERFORMER “Blur”
INDEX 01 00:00:00
TRACK 02 AUDIO
TITLE “Jubilee (Live at the Budokan 8th November 1995)”
PERFORMER “Blur”
INDEX 00 01:35:02
INDEX 01 01:35:05
TRACK 03 AUDIO
TITLE “Popscene (Live at the Budokan 8th November 1995)”
PERFORMER “Blur”
INDEX 00 04:46:17
INDEX 01 04:46:20
TRACK 04 AUDIO
TITLE “End Of A Century (Live at the Budokan 8th November 1995)”
PERFORMER “Blur”
INDEX 00 07:55:30
INDEX 01 07:55:32
TRACK 05 AUDIO
TITLE “Tracy Jacks (Live at the Budokan 8th November 1995)”
PERFORMER “Blur”
INDEX 00 10:49:40
INDEX 01 10:49:42
TRACK 06 AUDIO
TITLE “Mr. Robinson’s Quango (Live at the Budokan 8th November 1995)”
PERFORMER “Blur”
INDEX 00 14:57:02
INDEX 01 14:57:05
TRACK 07 AUDIO
TITLE “To The End (Live at the Budokan 8th November 1995)”
PERFORMER “Blur”
INDEX 00 19:57:02
INDEX 01 19:57:05
TRACK 08 AUDIO
TITLE “Fade Away (Live at the Budokan 8th November 1995)”
PERFORMER “Blur”
INDEX 00 24:13:57
INDEX 01 24:13:60
TRACK 09 AUDIO
TITLE “It Could Be You (Live at the Budokan 8th November 1995)”
PERFORMER “Blur”
INDEX 00 28:32:35
INDEX 01 28:32:37
TRACK 10 AUDIO
TITLE “Stereotypes (Live at the Budokan 8th November 1995)”
PERFORMER “Blur”
INDEX 00 31:44:15
INDEX 01 31:44:17
TRACK 11 AUDIO
TITLE “She’s So High (Live at NHK HALL 9th November 1995)”
PERFORMER “Blur”
INDEX 00 35:11:20
INDEX 01 35:11:22
TRACK 12 AUDIO
TITLE “Girls & Boys (Live at the Budokan 8th November 1995)”
PERFORMER “Blur”
INDEX 00 40:35:17
INDEX 01 40:35:20
TRACK 13 AUDIO
TITLE “Advert (Live at the Budokan 8th November 1995)”
PERFORMER “Blur”
INDEX 00 45:25:27
INDEX 01 45:25:30
TRACK 14 AUDIO
TITLE “Intermission (Live at the Budokan 8th November 1995)”
PERFORMER “Blur”
INDEX 00 48:52:12
INDEX 01 48:52:15
TRACK 15 AUDIO
TITLE “Bank Holiday (Live at the Budokan 8th November 1995)”
PERFORMER “Blur”
INDEX 00 50:29:27
INDEX 01 50:29:30
TRACK 16 AUDIO
TITLE “For Tomorrow (Live at the Budokan 8th November 1995)”
PERFORMER “Blur”
INDEX 00 52:18:52
INDEX 01 52:18:55
TRACK 17 AUDIO
TITLE “Country House (Live at the Budokan 8th November 1995)”
PERFORMER “Blur”
INDEX 00 58:43:10
INDEX 01 58:43:12
TRACK 18 AUDIO
TITLE “This Is A Low (Live at the Budokan 8th November 1995)”
PERFORMER “Blur”
INDEX 00 63:21:72
INDEX 01 63:22:00
TRACK 19 AUDIO
TITLE “Supa Shoppa (Live at the Budokan 8th November 1995)”
PERFORMER “Blur”
INDEX 00 68:32:10
INDEX 01 68:32:12

REM GENRE BritPop
REM DATE 1995
REM DISCID 5105C706
REM COMMENT “ExactAudioCopy v0.99pb4”
PERFORMER “Blur”
TITLE “Live at the Budokan (Japan TOCP-8907) CD2”
FILE “Blur – Live at the Budokan (Japan TOCP-8907) CD2.flac” WAVE
TRACK 01 AUDIO
TITLE “Yuko And Hiro (Live at the Budokan 8th November 1995)”
PERFORMER “Blur”
INDEX 01 00:00:00
TRACK 02 AUDIO
TITLE “He Thought Of Cars (Live at the Budokan 8th November 1995)”
PERFORMER “Blur”
INDEX 00 04:42:05
INDEX 01 04:42:07
TRACK 03 AUDIO
TITLE “Coping (Live at the Budokan 8th November 1995)”
PERFORMER “Blur”
INDEX 00 09:45:07
INDEX 01 09:45:10
TRACK 04 AUDIO
TITLE “Globe Alone (Live at the Budokan 8th November 1995)”
PERFORMER “Blur”
INDEX 00 13:08:52
INDEX 01 13:08:55
TRACK 05 AUDIO
TITLE “Parklife (Live at the Budokan 8th November 1995)”
PERFORMER “Blur”
INDEX 00 15:52:42
INDEX 01 15:52:45
TRACK 06 AUDIO
TITLE “The Universal (Live at the Budokan 8th November 1995)”
PERFORMER “Blur”
INDEX 00 19:30:10
INDEX 01 19:30:12

Leave a Reply

Your email address will not be published. Required fields are marked *

Enter the text from the image below
 

This site uses Akismet to reduce spam. Learn how your comment data is processed.