Blur – Leisure




Artist: Blur
Year: 1991
Genre: Rock
Notes: Discogs
Add. Notes:
Encoder: FLAC
Bitrate: ~900 kBit/s (44.1 kHz/16 Bit/s)
Bin/Cue incl.: Yes
Size: 326,39 MB
Password: “slam” (without ” “)


http://www.share-online.biz/dl/L5P2LTRPSKX
https://rapidgator.net/file/6e61aaea2223de831e5884ea05ce12f3
https://uploadbyte.com/k8s919o755lz
https://justupload.io/bhxejvc9pqyn
https://uploadever.com/uwe5jjffpm6q

Tracklist:

1 - She's So High - 4:44
2 - Bang - 3:37
3 - Slow Down - 3:11
4 - Repetition - 5:25
5 - Bad Day - 4:24
6 - Sing - 6:00
7 - There's No Other Way - 3:23
8 - Fool - 3:15
9 - Come Together - 3:52
10 - High Cool - 3:37
11 - Birthday - 3:50
12 - Wear Me Down - 4:49

EAC-Log, CUE-Sheed & NFO:

Click to open spoiler
Exact Audio Copy V0.99 prebeta 5 from 4. May 2009

EAC extraction logfile from 10. February 2010, 0:45

Blur / Leisure UK FOODCD6

Used drive : PIONEER DVD-RW DVR-218L Adapter: 2 ID: 0

Read mode : Secure
Utilize accurate stream : Yes
Defeat audio cache : Yes
Make use of C2 pointers : No

Read offset correction : 6
Overread into Lead-In and Lead-Out : No
Fill up missing offset samples with silence : Yes
Delete leading and trailing silent blocks : No
Null samples used in CRC calculations : Yes
Used interface : Native Win32 interface for Win NT & 2000

Used output format : Internal WAV Routines
Sample format : 44.100 Hz; 16 Bit; Stereo

TOC of the extracted CD

Track | Start | Length | Start sector | End sector
———————————————————
1 | 0:00.00 | 4:44.55 | 0 | 21354
2 | 4:44.55 | 3:37.70 | 21355 | 37699
3 | 8:22.50 | 3:11.20 | 37700 | 52044
4 | 11:33.70 | 5:25.42 | 52045 | 76461
5 | 16:59.37 | 4:24.45 | 76462 | 96306
6 | 21:24.07 | 6:00.70 | 96307 | 123376
7 | 27:25.02 | 3:23.63 | 123377 | 138664
8 | 30:48.65 | 3:15.25 | 138665 | 153314
9 | 34:04.15 | 3:52.30 | 153315 | 170744
10 | 37:56.45 | 3:37.47 | 170745 | 187066
11 | 41:34.17 | 3:50.00 | 187067 | 204316
12 | 45:24.17 | 4:49.25 | 204317 | 226016

Range status and errors

Selected range

Filename E:\Music\Blur\Albums\1991 – Leisure UK FOODCD6\Blur – Leisure UK FOODCD6.wav

Peak level 100.0 %
Range quality 100.0 %
Test CRC 2CAC79B9
Copy CRC 2CAC79B9
Copy OK

No errors occurred

AccurateRip summary

Track 1 accurately ripped (confidence 39) [2FA9C40B]
Track 2 accurately ripped (confidence 39) [6ED64C85]
Track 3 accurately ripped (confidence 39) [5587F37C]
Track 4 accurately ripped (confidence 39) [9B85B900]
Track 5 accurately ripped (confidence 39) [FA3E1766]
Track 6 accurately ripped (confidence 39) [41DE2D5D]
Track 7 accurately ripped (confidence 39) [6BF47B82]
Track 8 accurately ripped (confidence 39) [AB3D7A96]
Track 9 accurately ripped (confidence 38) [3DDB5196]
Track 10 accurately ripped (confidence 39) [1B6DECAC]
Track 11 accurately ripped (confidence 39) [74C8E2EE]
Track 12 accurately ripped (confidence 38) [F5283A2D]

All tracks accurately ripped

End of status report

REM GENRE Britpop
REM DATE 1991
REM DISCID A90BC50C
REM COMMENT “ExactAudioCopy v0.99pb5”
PERFORMER “Blur”
TITLE “Leisure UK FOODCD6”
FILE “Blur – Leisure UK FOODCD6.flac” WAVE
TRACK 01 AUDIO
TITLE “She’s So High”
PERFORMER “Blur”
INDEX 01 00:00:00
TRACK 02 AUDIO
TITLE “Bang”
PERFORMER “Blur”
INDEX 00 04:43:60
INDEX 01 04:44:55
TRACK 03 AUDIO
TITLE “Slow Down”
PERFORMER “Blur”
INDEX 00 08:20:32
INDEX 01 08:22:50
TRACK 04 AUDIO
TITLE “Repetition”
PERFORMER “Blur”
INDEX 00 11:33:20
INDEX 01 11:33:70
TRACK 05 AUDIO
TITLE “Bad Day”
PERFORMER “Blur”
INDEX 00 16:58:25
INDEX 01 16:59:37
TRACK 06 AUDIO
TITLE “Sing”
PERFORMER “Blur”
INDEX 00 21:22:40
INDEX 01 21:24:07
TRACK 07 AUDIO
TITLE “There’s No Other Way”
PERFORMER “Blur”
INDEX 00 27:23:57
INDEX 01 27:25:02
TRACK 08 AUDIO
TITLE “Fool”
PERFORMER “Blur”
INDEX 00 30:46:65
INDEX 01 30:48:65
TRACK 09 AUDIO
TITLE “Come Together”
PERFORMER “Blur”
INDEX 00 34:03:45
INDEX 01 34:04:15
TRACK 10 AUDIO
TITLE “High Cool”
PERFORMER “Blur”
INDEX 00 37:55:35
INDEX 01 37:56:45
TRACK 11 AUDIO
TITLE “Birthday”
PERFORMER “Blur”
INDEX 00 41:32:55
INDEX 01 41:34:17
TRACK 12 AUDIO
TITLE “Wear Me Down”
PERFORMER “Blur”
INDEX 00 45:23:07
INDEX 01 45:24:17

Leave a Reply

Your email address will not be published. Required fields are marked *

This site uses Akismet to reduce spam. Learn how your comment data is processed.