Blur – Leisure (Japanese Edition)




Artist: Blur
Year: 1991
Genre: Rock
Notes: Discogs
Add. Notes: Japanese Edition
Encoder: FLAC
Bitrate: ~900 kBit/s (44.1 kHz/16 Bit/s)
Bin/Cue incl.: Yes
Size: 400,48 MB
Password: “slam” (without ” “)


http://www.share-online.biz/dl/0X5DYSRP9EF3
https://rapidgator.net/file/641ebe651701effee902d23489585319
https://uploadbyte.com/ykm82qzu3wg4
https://uploadever.com/zlzzqkc1p12d

Tracklist:

1 - She's So High - 4:45
2 - There's No Other Way - 3:22
3 - Bang - 3:36
4 - I Know - 3:32
5 - Slow Down - 3:11
6 - Repetition - 5:25
7 - Bad Day - 4:24
8 - Sing - 6:00
9 - High Cool - 3:37
10 - Come Together - 3:51
11 - Inertia - 3:48
12 - Mr. Briggs - 3:58
13 - Fool - 3:15
14 - Birthday - 3:50
15 - Wear Me Down - 4:50

EAC-Log, CUE-Sheed & NFO:

Click to open spoiler
Exact Audio Copy V0.99 prebeta 5 from 4. May 2009

EAC extraction logfile from 7. July 2010, 18:01

Blur / Leisure TOCP-6833 (Japan CD)

Used drive : PIONEER DVD-RW DVR-218L Adapter: 3 ID: 0

Read mode : Secure
Utilize accurate stream : Yes
Defeat audio cache : Yes
Make use of C2 pointers : No

Read offset correction : 6
Overread into Lead-In and Lead-Out : No
Fill up missing offset samples with silence : Yes
Delete leading and trailing silent blocks : No
Null samples used in CRC calculations : Yes
Used interface : Native Win32 interface for Win NT & 2000

Used output format : User Defined Encoder
Selected bitrate : 768 kBit/s
Quality : High
Add ID3 tag : No
Command line compressor : C:\Program Files\Exact Audio Copy\FLAC\FLAC.EXE
Additional command line options : -V -8 -T “artist=%a” -T “title=%t” -T “album=%g” -T “date=%y” -T “tracknumber=%n” -T “genre=%m” %s

TOC of the extracted CD

Track | Start | Length | Start sector | End sector
———————————————————
1 | 0:00.32 | 4:46.65 | 32 | 21546
2 | 4:47.22 | 3:23.68 | 21547 | 36839
3 | 8:11.15 | 3:37.25 | 36840 | 53139
4 | 11:48.40 | 3:32.45 | 53140 | 69084
5 | 15:21.10 | 3:11.30 | 69085 | 83439
6 | 18:32.40 | 5:25.40 | 83440 | 107854
7 | 23:58.05 | 4:24.40 | 107855 | 127694
8 | 28:22.45 | 6:00.57 | 127695 | 154751
9 | 34:23.27 | 3:38.25 | 154752 | 171126
10 | 38:01.52 | 3:52.68 | 171127 | 188594
11 | 41:54.45 | 3:48.65 | 188595 | 205759
12 | 45:43.35 | 3:59.50 | 205760 | 223734
13 | 49:43.10 | 3:16.42 | 223735 | 238476
14 | 52:59.52 | 3:50.30 | 238477 | 255756
15 | 56:50.07 | 4:50.20 | 255757 | 277526

Range status and errors

Selected range

Filename E:\Music\Blur\Albums\1991 – Leisure TOCP-6833 (Japan CD)\Leisure TOCP-6833 (Japan CD).wav

Peak level 100.0 %
Range quality 100.0 %
Test CRC F4AA82E8
Copy CRC F4AA82E8
Copy OK

No errors occurred

AccurateRip summary

Track 1 accurately ripped (confidence 2) [EE5CE165]
Track 2 accurately ripped (confidence 2) [C4913E03]
Track 3 accurately ripped (confidence 2) [3F3AD788]
Track 4 accurately ripped (confidence 2) [C7530132]
Track 5 accurately ripped (confidence 2) [F72D50E5]
Track 6 accurately ripped (confidence 2) [D46805E2]
Track 7 accurately ripped (confidence 2) [4D89405F]
Track 8 accurately ripped (confidence 2) [3E172828]
Track 9 accurately ripped (confidence 2) [4E1392B7]
Track 10 accurately ripped (confidence 2) [0662310C]
Track 11 accurately ripped (confidence 2) [B40C38F3]
Track 12 accurately ripped (confidence 2) [569E74DF]
Track 13 accurately ripped (confidence 2) [0B02B9D6]
Track 14 accurately ripped (confidence 2) [32D833B2]
Track 15 accurately ripped (confidence 2) [C4A1BC77]

All tracks accurately ripped

End of status report

REM GENRE Rock
REM DATE 1991
REM DISCID C20E740F
REM COMMENT “ExactAudioCopy v0.99pb5”
PERFORMER “Blur”
TITLE “Leisure TOCP-6833 (Japan CD)”
FILE “Leisure TOCP-6833 (Japan CD).flac” WAVE
TRACK 01 AUDIO
TITLE “She’s So High”
PERFORMER “Blur”
INDEX 00 00:00:00
INDEX 01 00:00:32
TRACK 02 AUDIO
TITLE “There’s No Other Way”
PERFORMER “Blur”
INDEX 00 04:45:72
INDEX 01 04:47:22
TRACK 03 AUDIO
TITLE “Bang”
PERFORMER “Blur”
INDEX 00 08:09:52
INDEX 01 08:11:15
TRACK 04 AUDIO
TITLE “I Know”
PERFORMER “Blur”
INDEX 00 11:47:32
INDEX 01 11:48:40
TRACK 05 AUDIO
TITLE “Slow Down”
PERFORMER “Blur”
INDEX 00 15:20:42
INDEX 01 15:21:10
TRACK 06 AUDIO
TITLE “Repetition”
PERFORMER “Blur”
INDEX 01 18:32:40
TRACK 07 AUDIO
TITLE “Bad Day”
PERFORMER “Blur”
INDEX 01 23:58:05
TRACK 08 AUDIO
TITLE “Sing”
PERFORMER “Blur”
INDEX 01 28:22:45
TRACK 09 AUDIO
TITLE “High Cool”
PERFORMER “Blur”
INDEX 01 34:23:27
TRACK 10 AUDIO
TITLE “Come Together”
PERFORMER “Blur”
INDEX 00 38:00:46
INDEX 01 38:01:52
TRACK 11 AUDIO
TITLE “Inertia”
PERFORMER “Blur”
INDEX 00 41:53:02
INDEX 01 41:54:45
TRACK 12 AUDIO
TITLE “Mr Briggs”
PERFORMER “Blur”
INDEX 00 45:43:10
INDEX 01 45:43:35
TRACK 13 AUDIO
TITLE “Fool”
PERFORMER “Blur”
INDEX 00 49:41:47
INDEX 01 49:43:10
TRACK 14 AUDIO
TITLE “Birthday”
PERFORMER “Blur”
INDEX 00 52:58:35
INDEX 01 52:59:52
TRACK 15 AUDIO
TITLE “Wear Me Down”
PERFORMER “Blur”
INDEX 01 56:50:07

Leave a Reply

Your email address will not be published. Required fields are marked *

This site uses Akismet to reduce spam. Learn how your comment data is processed.