Blur – InterActive Songbook – Parklife




Artist: Blur
Year: 1997
Genre: Rock
Notes: Discogs
Add. Notes:
Cover incl.: Yes
Encoder: FLAC
Bitrate: ~800 kBit/s (44.1 kHz/16 Bit/s)
Log & Cue incl.: Yes
Size: 686,57 MB
Password: “slam” (without ” “)


All Downloads/Hosters are compatible

Download 1
Turbobit.net
Rapidgator.net
UploadEver.com
KatFile.com
UsersDrive.com
Download 2
Turbobit.net
Rapidgator.net
UploadEver.com
KatFile.com
UsersDrive.com
Download 3
Turbobit.net
Rapidgator.net
UploadEver.com
KatFile.com
UsersDrive.com

Tracklist:

1-1 - Data - 11:32
1-2 - Girls & Boys - 4:56
1-3 - Girls & Boys (Soundalike Guitar Track) - 4:56
1-4 - Girls & Boys (Instrumental) - 4:47
1-5 - Tracy Jacks - 4:22
1-6 - Tracy Jacks (Soundalike Guitar Track) - 4:22
1-7 - End Of A Century - 2:49
1-8 - End Of A Century (Soundalike Guitar Track) - 2:55
1-9 - Parklife - 3:10
1-10 - Parklife (Soundalike Guitar Track) - 3:12
1-11 - Parklife (Instrumental) - 3:12
1-12 - Bank Holiday - 1:45
1-13 - Bank Holiday (Soundalike Guitar Track) - 1:43
2-1 - Data - 6:18
2-2 - Badhead - 3:32
2-3 - Badhead (Soundalike Guitar Track) - 3:32
2-4 - The Debt Collector - 2:13
2-5 - The Debt Collector (Soundalike Guitar Track) - 2:13
2-6 - Far Out - 1:39
2-7 - Far Out (Soundalike Guitar Track) - 1:40
2-8 - To The End - 4:09
2-9 - To The End (Soundalike Guitar Track) - 4:11
2-10 - To The End (Instrumental) - 4:14
2-11 - London Loves - 4:20
2-12 - London Loves (Soundalike Guitar Track) - 4:19
3-1 - Data - 27:02
3-2 - Trouble In The Message Centre - 4:13
3-3 - Trouble In The Message Centre (Soundalike Guitar 
Track) - 4:13
3-4 - Clover Over Dover - 3:24
3-5 - Clover Over Dover (Soundalike Guitar Track) - 3:26
3-6 - Magic America - 3:43
3-7 - Magic America (Soundalike Guitar Track) - 3:44
3-8 - Jubilee - 2:53
3-9 - Jubilee (Soundalike Guitar Track) - 2:54
3-10 - This Is A Low - 5:06
3-11 - This Is A Low (Soundalike Guitar Track) - 5:06
3-12 - This Is A Low (Instrumental) - 5:10
3-13 - Lot 105 - 1:20
3-14 - Lot 105 (Soundalike Guitar Track) - 1:28

EAC-Log, CUE-Sheed & NFO:

Click to open spoiler
Exact Audio Copy V0.99 prebeta 5 from 4. May 2009

EAC extraction logfile from 15. October 2010, 3:33

Blur / Parklife – InterActive Songbook (CD1)

Used drive : PIONEER DVD-RW DVR-218L Adapter: 3 ID: 0

Read mode : Secure
Utilize accurate stream : Yes
Defeat audio cache : Yes
Make use of C2 pointers : No

Read offset correction : 6
Overread into Lead-In and Lead-Out : No
Fill up missing offset samples with silence : Yes
Delete leading and trailing silent blocks : No
Null samples used in CRC calculations : Yes
Used interface : Native Win32 interface for Win NT & 2000

Used output format : User Defined Encoder
Selected bitrate : 768 kBit/s
Quality : High
Add ID3 tag : No
Command line compressor : C:\Program Files\Exact Audio Copy\FLAC\FLAC.EXE
Additional command line options : -V -8 -T “artist=%a” -T “title=%t” -T “album=%g” -T “date=%y” -T “tracknumber=%n” -T “genre=%m” %s

TOC of the extracted CD

Track | Start | Length | Start sector | End sector
———————————————————
1 | 0:00.00 | 11:32.06 | 0 | 51905
2 | 11:32.06 | 4:55.57 | 51906 | 74087
3 | 16:27.63 | 4:55.66 | 74088 | 96278
4 | 21:23.54 | 4:46.52 | 96279 | 117780
5 | 26:10.31 | 4:21.41 | 117781 | 137396
6 | 30:31.72 | 4:22.16 | 137397 | 157062
7 | 34:54.13 | 2:49.30 | 157063 | 169767
8 | 37:43.43 | 2:54.38 | 169768 | 182855
9 | 40:38.06 | 3:10.27 | 182856 | 197132
10 | 43:48.33 | 3:12.13 | 197133 | 211545
11 | 47:00.46 | 3:12.34 | 211546 | 225979
12 | 50:13.05 | 1:45.02 | 225980 | 233856
13 | 51:58.07 | 1:43.09 | 233857 | 241590

Range status and errors

Selected range

Filename E:\Music\Blur\1997 – Parklife – InterActive Songbook\Parklife – InterActive Songbook (CD1).wav

Peak level 100.0 %
Range quality 100.0 %
Test CRC E35A97F7
Copy CRC E35A97F7
Copy OK

No errors occurred

AccurateRip summary

Track 2 not present in database
Track 3 not present in database
Track 4 not present in database
Track 5 not present in database
Track 6 not present in database
Track 7 not present in database
Track 8 not present in database
Track 9 not present in database
Track 10 not present in database
Track 11 not present in database
Track 12 not present in database
Track 13 not present in database

None of the tracks are present in the AccurateRip database

End of status report

Exact Audio Copy V0.99 prebeta 5 from 4. May 2009

EAC extraction logfile from 15. October 2010, 4:52

Blur / Parklife – InterActive Songbook (CD2)

Used drive : PIONEER DVD-RW DVR-218L Adapter: 3 ID: 0

Read mode : Secure
Utilize accurate stream : Yes
Defeat audio cache : Yes
Make use of C2 pointers : No

Read offset correction : 6
Overread into Lead-In and Lead-Out : No
Fill up missing offset samples with silence : Yes
Delete leading and trailing silent blocks : No
Null samples used in CRC calculations : Yes
Used interface : Native Win32 interface for Win NT & 2000

Used output format : User Defined Encoder
Selected bitrate : 768 kBit/s
Quality : High
Add ID3 tag : No
Command line compressor : C:\Program Files\Exact Audio Copy\FLAC\FLAC.EXE
Additional command line options : -V -8 -T “artist=%a” -T “title=%t” -T “album=%g” -T “date=%y” -T “tracknumber=%n” -T “genre=%m” %s

TOC of the extracted CD

Track | Start | Length | Start sector | End sector
———————————————————
1 | 0:00.00 | 6:18.04 | 0 | 28353
2 | 6:18.04 | 3:31.62 | 28354 | 44240
3 | 9:49.66 | 3:32.37 | 44241 | 60177
4 | 13:22.28 | 2:12.45 | 60178 | 70122
5 | 15:34.73 | 2:13.27 | 70123 | 80124
6 | 17:48.25 | 1:39.26 | 80125 | 87575
7 | 19:27.51 | 1:39.71 | 87576 | 95071
8 | 21:07.47 | 4:09.19 | 95072 | 113765
9 | 25:16.66 | 4:11.21 | 113766 | 132611
10 | 29:28.12 | 4:14.17 | 132612 | 151678
11 | 33:42.29 | 4:20.35 | 151679 | 171213
12 | 38:02.64 | 4:19.06 | 171214 | 190644

Range status and errors

Selected range

Filename E:\Music\Blur\1997 – Parklife – InterActive Songbook\Blur – Parklife – InterActive Songbook (CD2).wav

Peak level 100.0 %
Range quality 100.0 %
Test CRC D4C48421
Copy CRC D4C48421
Copy OK

No errors occurred

AccurateRip summary

Track 2 not present in database
Track 3 not present in database
Track 4 not present in database
Track 5 not present in database
Track 6 not present in database
Track 7 not present in database
Track 8 not present in database
Track 9 not present in database
Track 10 not present in database
Track 11 not present in database
Track 12 not present in database

None of the tracks are present in the AccurateRip database

End of status report

Exact Audio Copy V0.99 prebeta 5 from 4. May 2009

EAC extraction logfile from 15. October 2010, 3:06

Blur / Parklife – InterActive Songbook (CD3)

Used drive : PIONEER DVD-RW DVR-218L Adapter: 3 ID: 0

Read mode : Secure
Utilize accurate stream : Yes
Defeat audio cache : Yes
Make use of C2 pointers : No

Read offset correction : 6
Overread into Lead-In and Lead-Out : No
Fill up missing offset samples with silence : Yes
Delete leading and trailing silent blocks : No
Null samples used in CRC calculations : Yes
Used interface : Native Win32 interface for Win NT & 2000

Used output format : User Defined Encoder
Selected bitrate : 768 kBit/s
Quality : High
Add ID3 tag : No
Command line compressor : C:\Program Files\Exact Audio Copy\FLAC\FLAC.EXE
Additional command line options : -V -8 -T “artist=%a” -T “title=%t” -T “album=%g” -T “date=%y” -T “tracknumber=%n” -T “genre=%m” %s

TOC of the extracted CD

Track | Start | Length | Start sector | End sector
———————————————————
1 | 0:00.00 | 27:01.65 | 0 | 121639
2 | 27:01.65 | 4:12.53 | 121640 | 140592
3 | 31:14.43 | 4:13.16 | 140593 | 159583
4 | 35:27.59 | 3:24.12 | 159584 | 174895
5 | 38:51.71 | 3:25.67 | 174896 | 190337
6 | 42:17.63 | 3:42.67 | 190338 | 207054
7 | 46:00.55 | 3:43.49 | 207055 | 223828
8 | 49:44.29 | 2:53.12 | 223829 | 236815
9 | 52:37.41 | 2:54.21 | 236816 | 249886
10 | 55:31.62 | 5:05.63 | 249887 | 272824
11 | 60:37.50 | 5:06.37 | 272825 | 295811
12 | 65:44.12 | 5:10.08 | 295812 | 319069
13 | 70:54.20 | 1:19.64 | 319070 | 325058
14 | 72:14.09 | 1:18.18 | 325059 | 330926

Range status and errors

Selected range

Filename E:\Music\Blur\1997 – Parklife – InterActive Songbook\Parklife – InterActive Songbook (CD3).wav

Peak level 100.0 %
Range quality 100.0 %
Test CRC 9EA1150B
Copy CRC 9EA1150B
Copy OK

No errors occurred

AccurateRip summary

Track 2 not present in database
Track 3 not present in database
Track 4 not present in database
Track 5 not present in database
Track 6 not present in database
Track 7 not present in database
Track 8 not present in database
Track 9 not present in database
Track 10 not present in database
Track 11 not present in database
Track 12 not present in database
Track 13 not present in database
Track 14 not present in database

None of the tracks are present in the AccurateRip database

End of status report

REM GENRE BritPop
REM DATE 1997
REM DISCID AF0C950D
REM COMMENT “ExactAudioCopy v0.99pb5”
PERFORMER “Blur”
TITLE “Parklife – InterActive Songbook (CD1)”
FILE “Parklife – InterActive Songbook (CD1).flac” WAVE
TRACK 01 AUDIO
TITLE “Girls & Boys”
PERFORMER “Blur”
INDEX 01 00:00:00
TRACK 02 AUDIO
TITLE “Girls & Boys (Soundalike Guitar Track)”
PERFORMER “Blur”
INDEX 00 04:53:58
INDEX 01 04:55:57
TRACK 03 AUDIO
TITLE “Girls & Boys (Instrumental)”
PERFORMER “Blur”
INDEX 00 09:49:49
INDEX 01 09:51:48
TRACK 04 AUDIO
TITLE “Tracy Jacks”
PERFORMER “Blur”
INDEX 00 14:36:26
INDEX 01 14:38:25
TRACK 05 AUDIO
TITLE “Tracy Jacks (Soundalike Guitar Track)”
PERFORMER “Blur”
INDEX 00 18:57:67
INDEX 01 18:59:66
TRACK 06 AUDIO
TITLE “End Of A Century”
PERFORMER “Blur”
INDEX 00 23:20:08
INDEX 01 23:22:07
TRACK 07 AUDIO
TITLE “End Of A Century (Soundalike Guitar Track)”
PERFORMER “Blur”
INDEX 00 26:09:38
INDEX 01 26:11:37
TRACK 08 AUDIO
TITLE “Parklife”
PERFORMER “Blur”
INDEX 00 29:04:01
INDEX 01 29:06:00
TRACK 9 AUDIO
TITLE “Parklife (Soundalike Guitar Track)”
PERFORMER “Blur”
INDEX 00 32:14:28
INDEX 01 32:16:27
TRACK 10 AUDIO
TITLE “Parklife (Instrumental)”
PERFORMER “Blur”
INDEX 00 35:26:41
INDEX 01 35:28:40
TRACK 11 AUDIO
TITLE “Bank Holiday”
PERFORMER “Blur”
INDEX 00 38:39:00
INDEX 01 38:40:74
TRACK 12 AUDIO
TITLE “Bank Holiday (Soundalike Guitar Track)”
PERFORMER “Blur”
INDEX 00 40:24:02
INDEX 01 40:26:01

REM GENRE BritPop
REM DATE 1997
REM DISCID 9B09ED0C
REM COMMENT “ExactAudioCopy v0.99pb5”
PERFORMER “Blur”
TITLE “Parklife – InterActive Songbook (CD2)”
FILE “Blur – Parklife – InterActive Songbook (CD2).flac” WAVE
TRACK 01 AUDIO
TITLE “Badhead”
PERFORMER “Blur”
INDEX 01 00:00:00
TRACK 02 AUDIO
TITLE “Badhead (Soundalike Guitar Track)”
PERFORMER “Blur”
INDEX 00 03:29:63
INDEX 01 03:31:62
TRACK 03 AUDIO
TITLE “The Debt Collector”
PERFORMER “Blur”
INDEX 00 07:02:25
INDEX 01 07:04:24
TRACK 04 AUDIO
TITLE “The Debt Collector (Soundalike Guitar Track)”
PERFORMER “Blur”
INDEX 00 09:14:70
INDEX 01 09:16:69
TRACK 05 AUDIO
TITLE “Far Out”
PERFORMER “Blur”
INDEX 00 11:28:22
INDEX 01 11:30:21
TRACK 06 AUDIO
TITLE “Far Out (Soundalike Guitar Track)”
PERFORMER “Blur”
INDEX 00 13:07:48
INDEX 01 13:09:47
TRACK 07 AUDIO
TITLE “To The End”
PERFORMER “Blur”
INDEX 00 14:47:44
INDEX 01 14:49:43
TRACK 08 AUDIO
TITLE “To The End (Soundalike Guitar Track)”
PERFORMER “Blur”
INDEX 00 18:56:63
INDEX 01 18:58:62
TRACK 9 AUDIO
TITLE “To The End (Instrumental)”
PERFORMER “Blur”
INDEX 00 23:08:09
INDEX 01 23:10:08
TRACK 10 AUDIO
TITLE “London Loves”
PERFORMER “Blur”
INDEX 00 27:22:26
INDEX 01 27:24:25
TRACK 11 AUDIO
TITLE “London Loves (Soundalike Guitar Track)”
PERFORMER “Blur”
INDEX 00 31:42:61
INDEX 01 31:44:60

REM GENRE BritPop
REM DATE 1997
REM DISCID E4113C0E
REM COMMENT “ExactAudioCopy v0.99pb5”
PERFORMER “Blur”
TITLE “Parklife – InterActive Songbook (CD3)”
FILE “Parklife – InterActive Songbook (CD3).flac” WAVE
TRACK 01 AUDIO
TITLE “Trouble In The Message Centre”
PERFORMER “Blur”
INDEX 01 00:00:00
TRACK 02 AUDIO
TITLE “Trouble In The Message Centre (Soundalike Guitar Track) ”
PERFORMER “Blur”
INDEX 00 04:10:54
INDEX 01 04:12:53
TRACK 03 AUDIO
TITLE “Clover Over Dover”
PERFORMER “Blur”
INDEX 00 08:23:70
INDEX 01 08:25:69
TRACK 04 AUDIO
TITLE “Clover Over Dover (Soundalike Guitar Track)”
PERFORMER “Blur”
INDEX 00 11:48:07
INDEX 01 11:50:06
TRACK 05 AUDIO
TITLE “Magic America”
PERFORMER “Blur”
INDEX 00 15:13:74
INDEX 01 15:15:73
TRACK 06 AUDIO
TITLE “Magic America (Soundalike Guitar Track)”
PERFORMER “Blur”
INDEX 00 18:56:66
INDEX 01 18:58:65
TRACK 07 AUDIO
TITLE “Jubilee”
PERFORMER “Blur”
INDEX 00 22:40:40
INDEX 01 22:42:39
TRACK 08 AUDIO
TITLE “Jubilee (Soundalike Guitar Track) ”
PERFORMER “Blur”
INDEX 00 25:33:52
INDEX 01 25:35:51
TRACK 9 AUDIO
TITLE “This Is A Low”
PERFORMER “Blur”
INDEX 00 28:27:73
INDEX 01 28:29:72
TRACK 10 AUDIO
TITLE “This Is A Low (Soundalike Guitar Track) ”
PERFORMER “Blur”
INDEX 00 33:33:61
INDEX 01 33:35:60
TRACK 11 AUDIO
TITLE “This Is A Low (Instrumental) ”
PERFORMER “Blur”
INDEX 00 38:40:23
INDEX 01 38:42:22
TRACK 12 AUDIO
TITLE “Lot 105”
PERFORMER “Blur”
INDEX 00 43:50:31
INDEX 01 43:52:30
TRACK 13 AUDIO
TITLE “Lot 105 (Soundalike Guitar Track)”
PERFORMER “Blur”
INDEX 00 45:10:20
INDEX 01 45:12:19

Leave a Reply

Your email address will not be published. Required fields are marked *

Enter the text from the image below
 

This site uses Akismet to reduce spam. Learn how your comment data is processed.