Blur – Blur (Japanese Edition)




Artist: Blur
Year: 1997
Genre: Rock
Notes: Discogs
Add. Notes: Japanese Edition
Cover incl.: Yes
Encoder: FLAC
Bitrate: ~900 kBit/s (44.1 kHz/16 Bit/s)
Log & Cue incl.: Yes
Size: 396,54 MB
Password: “slam” (without ” “)


All Downloads/Hosters are compatible

Download 1
Turbobit.net
Rapidgator.net
KatFile.com
UsersDrive.com
CloudShare.to
Download 2
Turbobit.net
Rapidgator.net
KatFile.com
UsersDrive.com
CloudShare.to
Download 3
Turbobit.net
Rapidgator.net
KatFile.com
UsersDrive.com
CloudShare.to

Tracklist:

1 - Beetlebum - 5:05
2 - Song 2 - 2:01
3 - Country Sad Ballad Man - 4:50
4 - M.O.R. - 3:27
5 - On Your Own - 4:26
6 - Theme From Retro - 3:37
7 - You're So Great - 3:35
8 - Death Of A Party - 4:33
9 - Chinese Bombs - 1:24
10 - I'm Just A Killer For Your Love - 4:11
11 - Look Inside America - 3:50
12 - Strange News From Another Star - 4:02
13 - Movin' On - 3:44
14 - Essex Dogs - 6:18
Bonus Track For Japan
15 - Dancehall - 5:05

EAC-Log, CUE-Sheed & NFO:

Click to open spoiler
Exact Audio Copy V0.99 prebeta 5 from 4. May 2009

EAC extraction logfile from 22. December 2009, 14:17

Blur / Blur Japan TOCP-50088

Used drive : TEAC CD-W540E Adapter: 1 ID: 0

Read mode : Secure
Utilize accurate stream : Yes
Defeat audio cache : Yes
Make use of C2 pointers : No

Read offset correction : 686
Overread into Lead-In and Lead-Out : No
Fill up missing offset samples with silence : Yes
Delete leading and trailing silent blocks : No
Null samples used in CRC calculations : Yes
Used interface : Installed external ASPI interface

Used output format : Internal WAV Routines
Sample format : 44.100 Hz; 16 Bit; Stereo

TOC of the extracted CD

Track | Start | Length | Start sector | End sector
———————————————————
1 | 0:00.00 | 5:05.35 | 0 | 22909
2 | 5:05.35 | 2:01.22 | 22910 | 32006
3 | 7:06.57 | 4:50.18 | 32007 | 53774
4 | 11:57.00 | 3:27.15 | 53775 | 69314
5 | 15:24.15 | 4:26.05 | 69315 | 89269
6 | 19:50.20 | 3:37.20 | 89270 | 105564
7 | 23:27.40 | 3:35.72 | 105565 | 121761
8 | 27:03.37 | 4:33.63 | 121762 | 142299
9 | 31:37.25 | 1:24.60 | 142300 | 148659
10 | 33:02.10 | 4:11.57 | 148660 | 167541
11 | 37:13.67 | 3:50.20 | 167542 | 184811
12 | 41:04.12 | 4:02.30 | 184812 | 202991
13 | 45:06.42 | 3:44.65 | 202992 | 219856
14 | 48:51.32 | 6:18.08 | 219857 | 248214
15 | 55:09.40 | 5:05.27 | 248215 | 271116

Range status and errors

Selected range

Filename C:\My Music\Blur\Blur Japan TOCP-50088\Blur – Blur Japan TOCP-50088.wav

Peak level 98.0 %
Range quality 100.0 %
Test CRC 10C26BCB
Copy CRC 10C26BCB
Copy OK

No errors occurred

AccurateRip summary

Track 1 accurately ripped (confidence 3) [9D6DB569]
Track 2 accurately ripped (confidence 3) [AFA2E4B4]
Track 3 accurately ripped (confidence 3) [14DC4BE1]
Track 4 accurately ripped (confidence 3) [901EFA02]
Track 5 accurately ripped (confidence 3) [57D96C2E]
Track 6 accurately ripped (confidence 3) [041A14B7]
Track 7 accurately ripped (confidence 3) [D5777EDC]
Track 8 accurately ripped (confidence 3) [89E6C399]
Track 9 accurately ripped (confidence 3) [8B3E2A84]
Track 10 accurately ripped (confidence 3) [C45F8553]
Track 11 accurately ripped (confidence 3) [52495BB2]
Track 12 accurately ripped (confidence 3) [25E79DE6]
Track 13 accurately ripped (confidence 3) [CB695CD1]
Track 14 accurately ripped (confidence 3) [2EDADF62]
Track 15 accurately ripped (confidence 3) [8B5BE41A]

All tracks accurately ripped

End of status report

REM GENRE “Alt. Rock”
REM DATE 1997
REM DISCID DE0E1E0F
REM COMMENT “ExactAudioCopy v0.99pb5”
PERFORMER “Blur”
TITLE “Blur Japan TOCP-50088”
FILE “Blur – Blur Japan TOCP-50088.flac” WAVE
TRACK 01 AUDIO
TITLE “Beetlebum”
PERFORMER “Blur”
INDEX 01 00:00:00
TRACK 02 AUDIO
TITLE “Song 2”
PERFORMER “Blur”
INDEX 00 05:04:25
INDEX 01 05:05:35
TRACK 03 AUDIO
TITLE “Country Sad Ballad Man”
PERFORMER “Blur”
INDEX 01 07:06:57
TRACK 04 AUDIO
TITLE “M.O.R.”
PERFORMER “Blur”
INDEX 01 11:57:00
TRACK 05 AUDIO
TITLE “On Your Own”
PERFORMER “Blur”
INDEX 00 15:21:65
INDEX 01 15:24:15
TRACK 06 AUDIO
TITLE “Theme From Retro”
PERFORMER “Blur”
INDEX 01 19:50:20
TRACK 07 AUDIO
TITLE “You’re So Great”
PERFORMER “Blur”
INDEX 01 23:27:40
TRACK 08 AUDIO
TITLE “Death Of A Party”
PERFORMER “Blur”
INDEX 01 27:03:37
TRACK 09 AUDIO
TITLE “Chinese Bombs”
PERFORMER “Blur”
INDEX 00 31:36:03
INDEX 01 31:37:25
TRACK 10 AUDIO
TITLE “I’m Just A Killer For Your Love”
PERFORMER “Blur”
INDEX 00 33:00:21
INDEX 01 33:02:10
TRACK 11 AUDIO
TITLE “Look Inside America”
PERFORMER “Blur”
INDEX 01 37:13:67
TRACK 12 AUDIO
TITLE “Strange News From Another Star”
PERFORMER “Blur”
INDEX 01 41:04:12
TRACK 13 AUDIO
TITLE “Movin’ On”
PERFORMER “Blur”
INDEX 01 45:06:42
TRACK 14 AUDIO
TITLE “Essex Dogs”
PERFORMER “Blur”
INDEX 00 48:48:13
INDEX 01 48:51:32
TRACK 15 AUDIO
TITLE “Dancehall + Outro”
PERFORMER “Blur”
INDEX 00 55:07:18
INDEX 01 55:09:40

Leave a Reply

Your email address will not be published. Required fields are marked *

This site uses Akismet to reduce spam. Learn how your comment data is processed.