Blur – All The People (Blur Live At Hyde Park 02 July 2009)




Artist: Blur
Year: 2009
Genre: Rock
Notes: Discogs
Add. Notes:
Cover incl.: Yes
Encoder: FLAC
Bitrate: ~700 kBit/s (44.1 kHz/16 Bit/s)
Log & Cue incl.: Yes
Size: 444,97 MB
Password: “slam” (without ” “)


All Downloads/Hosters are compatible

Download 1
Turbobit.net
Rapidgator.net
KatFile.com
UploadRar.com
Download 2
Turbobit.net
Rapidgator.net
KatFile.com
UploadRar.com
Download 3
Turbobit.net
Rapidgator.net
KatFile.com
UploadRar.com

Tracklist:

1-01 - She's So High - 5:01
1-02 - Girls And Boys - 5:02
1-03 - Tracy Jacks - 4:32
1-04 - There's No Other Way - 4:14
1-05 - Jubilee - 3:01
1-06 - Badhead - 3:49
1-07 - Beetlebum - 6:50
1-08 - Out Of Time - 3:59
1-09 - Trimm Trabb - 5:25
1-10 - Coffee & TV - 5:30
1-11 - Tender - 9:10
2-01 - Country House - 5:08
2-02 - Oily Water - 4:20
2-03 - Chemical World - 5:08
2-04 - Sunday Sunday - 3:52
2-05 - Parklife - 3:12
2-06 - End Of A Century - 3:31
2-07 - To The End - 4:24
2-08 - This Is A Low - 8:37
2-09 - Popscene - 2:57
2-10 - Advert - 3:23
2-11 - Song 2 - 5:54
2-12 - Death Of A Party - 5:16
2-13 - For Tomorrow - 6:28
2-14 - The Universal - 4:47

EAC-Log, CUE-Sheed & NFO:

Click to open spoiler
Exact Audio Copy V0.99 prebeta 5 from 4. May 2009

EAC extraction logfile from 17. June 2010, 16:53

Blur / All the people… Blur: Live in Hyde Park 02 July 2009 CDLHN57 CD1

Used drive : PIONEER DVD-RW DVR-218L Adapter: 3 ID: 0

Read mode : Secure
Utilize accurate stream : Yes
Defeat audio cache : Yes
Make use of C2 pointers : No

Read offset correction : 6
Overread into Lead-In and Lead-Out : No
Fill up missing offset samples with silence : Yes
Delete leading and trailing silent blocks : No
Null samples used in CRC calculations : Yes
Used interface : Native Win32 interface for Win NT & 2000

Used output format : User Defined Encoder
Selected bitrate : 768 kBit/s
Quality : High
Add ID3 tag : No
Command line compressor : C:\Program Files\Exact Audio Copy\FLAC\FLAC.EXE
Additional command line options : -8 -V -T “ARTIST=%a” -T “TITLE=%t” -T “ALBUM=%g” -T “DATE=%y” -T “TRACKNUMBER=%n” -T “GENRE=%m” -T “COMMENT=%e” %s -o %d

TOC of the extracted CD

Track | Start | Length | Start sector | End sector
———————————————————
1 | 0:00.00 | 5:00.69 | 0 | 22568
2 | 5:00.69 | 5:01.72 | 22569 | 45215
3 | 10:02.66 | 4:31.60 | 45216 | 65600
4 | 14:34.51 | 4:13.72 | 65601 | 84647
5 | 18:48.48 | 3:01.36 | 84648 | 98258
6 | 21:50.09 | 3:48.41 | 98259 | 115399
7 | 25:38.50 | 6:50.14 | 115400 | 146163
8 | 32:28.64 | 3:58.56 | 146164 | 164069
9 | 36:27.45 | 5:24.72 | 164070 | 188441
10 | 41:52.42 | 5:30.24 | 188442 | 213215
11 | 47:22.66 | 9:09.57 | 213216 | 254447

Range status and errors

Selected range

Filename E:\Music\Blur\Albums\2009 – All the people Blur Live in Hyde Park 02072009 CDLHN57\Blur – All the people… Blur Live in Hyde Park 02 July 2009 CDLHN57 CD1.wav

Peak level 100.0 %
Range quality 100.0 %
Test CRC 5ECD446E
Copy CRC 5ECD446E
Copy OK

No errors occurred

AccurateRip summary

Track 1 cannot be verified as accurate (confidence 3) [A97F8E12], AccurateRip returned [CCC0A778]
Track 2 cannot be verified as accurate (confidence 3) [A5177BD1], AccurateRip returned [D8FAA848]
Track 3 cannot be verified as accurate (confidence 3) [BCB28EF7], AccurateRip returned [951EF853]
Track 4 cannot be verified as accurate (confidence 3) [FD757E49], AccurateRip returned [FF46E9A5]
Track 5 cannot be verified as accurate (confidence 3) [84B9D5BB], AccurateRip returned [F24D7E48]
Track 6 cannot be verified as accurate (confidence 3) [6F141A42], AccurateRip returned [7B4C0ECB]
Track 7 cannot be verified as accurate (confidence 3) [80B558CA], AccurateRip returned [5E8F6027]
Track 8 cannot be verified as accurate (confidence 3) [D3C8CD39], AccurateRip returned [AA7E8ABA]
Track 9 cannot be verified as accurate (confidence 3) [DE1502D9], AccurateRip returned [D4BA7787]
Track 10 cannot be verified as accurate (confidence 3) [C1F3A81E], AccurateRip returned [FD80FB9B]
Track 11 cannot be verified as accurate (confidence 3) [5CD11DAC], AccurateRip returned [401D3B93]

No tracks could be verified as accurate
You may have a different pressing from the one(s) in the database

End of status report

Exact Audio Copy V0.99 prebeta 5 from 4. May 2009

EAC extraction logfile from 17. June 2010, 18:05

Blur / All the people… Blur: Live in Hyde Park 02 July 2009 CDLHN57 CD2

Used drive : PIONEER DVD-RW DVR-218L Adapter: 3 ID: 0

Read mode : Secure
Utilize accurate stream : Yes
Defeat audio cache : Yes
Make use of C2 pointers : No

Read offset correction : 6
Overread into Lead-In and Lead-Out : No
Fill up missing offset samples with silence : Yes
Delete leading and trailing silent blocks : No
Null samples used in CRC calculations : Yes
Used interface : Native Win32 interface for Win NT & 2000

Used output format : User Defined Encoder
Selected bitrate : 768 kBit/s
Quality : High
Add ID3 tag : No
Command line compressor : C:\Program Files\Exact Audio Copy\FLAC\FLAC.EXE
Additional command line options : -8 -V -T “ARTIST=%a” -T “TITLE=%t” -T “ALBUM=%g” -T “DATE=%y” -T “TRACKNUMBER=%n” -T “GENRE=%m” -T “COMMENT=%e” %s -o %d

TOC of the extracted CD

Track | Start | Length | Start sector | End sector
———————————————————
1 | 0:00.00 | 5:08.02 | 0 | 23101
2 | 5:08.02 | 4:20.02 | 23102 | 42603
3 | 9:28.04 | 5:07.72 | 42604 | 65700
4 | 14:36.01 | 3:52.27 | 65701 | 83127
5 | 18:28.28 | 3:12.23 | 83128 | 97550
6 | 21:40.51 | 3:30.51 | 97551 | 113351
7 | 25:11.27 | 4:24.03 | 113352 | 133154
8 | 29:35.30 | 8:37.35 | 133155 | 171964
9 | 38:12.65 | 2:57.36 | 171965 | 185275
10 | 41:10.26 | 3:23.37 | 185276 | 200537
11 | 44:33.63 | 5:53.51 | 200538 | 227063
12 | 50:27.39 | 5:16.34 | 227064 | 250797
13 | 55:43.73 | 6:28.01 | 250798 | 279898
14 | 62:11.74 | 4:47.16 | 279899 | 301439

Range status and errors

Selected range

Filename E:\Music\Blur\Albums\2009 – All the people Blur Live in Hyde Park 02072009 CDLHN57\Blur – All the people… Blur Live in Hyde Park 02 July 2009 CDLHN57 CD2.wav

Peak level 100.0 %
Range quality 100.0 %
Test CRC 0772F6E5
Copy CRC 0772F6E5
Copy OK

No errors occurred

AccurateRip summary

Track 1 cannot be verified as accurate (confidence 3) [D3291197], AccurateRip returned [615EB1B5]
Track 2 cannot be verified as accurate (confidence 3) [0EEDB238], AccurateRip returned [ACB34F98]
Track 3 cannot be verified as accurate (confidence 3) [CBB1F372], AccurateRip returned [1E92C82B]
Track 4 cannot be verified as accurate (confidence 3) [A96DA7A2], AccurateRip returned [A9F27191]
Track 5 cannot be verified as accurate (confidence 3) [E2ED5B45], AccurateRip returned [002B37A9]
Track 6 cannot be verified as accurate (confidence 3) [BAF1A00C], AccurateRip returned [4FD9C94F]
Track 7 cannot be verified as accurate (confidence 3) [C359504E], AccurateRip returned [0CEB51AF]
Track 8 cannot be verified as accurate (confidence 3) [FB8CFA14], AccurateRip returned [ED8B18D3]
Track 9 cannot be verified as accurate (confidence 3) [B14A891E], AccurateRip returned [113A8D90]
Track 10 cannot be verified as accurate (confidence 3) [938F4FB1], AccurateRip returned [442C78C3]
Track 11 cannot be verified as accurate (confidence 3) [6F9D6CE1], AccurateRip returned [314A4830]
Track 12 cannot be verified as accurate (confidence 3) [3EA6D1E0], AccurateRip returned [36DEFFCF]
Track 13 cannot be verified as accurate (confidence 3) [93B41D34], AccurateRip returned [F58FCE29]
Track 14 cannot be verified as accurate (confidence 3) [860152D8], AccurateRip returned [FA911926]

No tracks could be verified as accurate
You may have a different pressing from the one(s) in the database

End of status report

REM GENRE Britpop
REM DATE 2009
REM DISCID 7D0D400B
REM COMMENT “ExactAudioCopy v0.99pb5”
PERFORMER “Blur”
TITLE “All the people… Blur: Live in Hyde Park 02 July 2009 CDLHN57 CD1”
FILE “Blur – All the people… Blur Live in Hyde Park 02 July 2009 CDLHN57 CD1.flac” WAVE
TRACK 01 AUDIO
TITLE “She’s So High (Live in Hyde Park 02 July 2009)”
PERFORMER “Blur”
INDEX 01 00:00:00
TRACK 02 AUDIO
TITLE “Girls And Boys (Live in Hyde Park 02 July 2009)”
PERFORMER “Blur”
INDEX 01 05:00:69
TRACK 03 AUDIO
TITLE “Tracy Jacks (Live in Hyde Park 02 July 2009)”
PERFORMER “Blur”
INDEX 01 10:02:66
TRACK 04 AUDIO
TITLE “There’s No Other Way (Live in Hyde Park 02 July 2009)”
PERFORMER “Blur”
INDEX 01 14:34:51
TRACK 05 AUDIO
TITLE “Jubilee (Live in Hyde Park 02 July 2009)”
PERFORMER “Blur”
INDEX 01 18:48:48
TRACK 06 AUDIO
TITLE “Badhead (Live in Hyde Park 02 July 2009)”
PERFORMER “Blur”
INDEX 01 21:50:09
TRACK 07 AUDIO
TITLE “Beetlebum (Live in Hyde Park 02 July 2009)”
PERFORMER “Blur”
INDEX 01 25:38:50
TRACK 08 AUDIO
TITLE “Out Of Time (Live in Hyde Park 02 July 2009)”
PERFORMER “Blur”
INDEX 01 32:28:64
TRACK 09 AUDIO
TITLE “Trimm Trabb (Live in Hyde Park 02 July 2009)”
PERFORMER “Blur”
INDEX 01 36:27:45
TRACK 10 AUDIO
TITLE “Coffee And TV (Live in Hyde Park 02 July 2009)”
PERFORMER “Blur”
INDEX 01 41:52:42
TRACK 11 AUDIO
TITLE “Tender (Live in Hyde Park 02 July 2009)”
PERFORMER “Blur”
INDEX 01 47:22:66

REM GENRE BritPop
REM DATE 2009
REM DISCID B30FB30E
REM COMMENT “ExactAudioCopy v0.99pb5”
PERFORMER “Blur”
TITLE “All the people… Blur: Live in Hyde Park 02 July 2009 CDLHN57 CD2”
FILE “Blur – All the people… Blur Live in Hyde Park 02 July 2009 CDLHN57 CD2.flac” WAVE
TRACK 01 AUDIO
TITLE “Country House (Live in Hyde Park 02 July 2009)”
PERFORMER “Blur”
INDEX 01 00:00:00
TRACK 02 AUDIO
TITLE “Oily Water (Live in Hyde Park 02 July 2009)”
PERFORMER “Blur”
INDEX 01 05:08:02
TRACK 03 AUDIO
TITLE “Chemical World (Live in Hyde Park 02 July 2009)”
PERFORMER “Blur”
INDEX 01 09:28:04
TRACK 04 AUDIO
TITLE “Sunday Sunday (Live in Hyde Park 02 July 2009)”
PERFORMER “Blur”
INDEX 01 14:36:01
TRACK 05 AUDIO
TITLE “Parklife (Live in Hyde Park 02 July 2009)”
PERFORMER “Blur”
INDEX 01 18:28:28
TRACK 06 AUDIO
TITLE “End Of A Century (Live in Hyde Park 02 July 2009)”
PERFORMER “Blur”
INDEX 01 21:40:51
TRACK 07 AUDIO
TITLE “To The End (Live in Hyde Park 02 July 2009)”
PERFORMER “Blur”
INDEX 01 25:11:27
TRACK 08 AUDIO
TITLE “This Is A Low (Live in Hyde Park 02 July 2009)”
PERFORMER “Blur”
INDEX 01 29:35:30
TRACK 09 AUDIO
TITLE “Popscene (Live in Hyde Park 02 July 2009)”
PERFORMER “Blur”
INDEX 01 38:12:65
TRACK 10 AUDIO
TITLE “Advert (Live in Hyde Park 02 July 2009)”
PERFORMER “Blur”
INDEX 01 41:10:26
TRACK 11 AUDIO
TITLE “Song 2 (Live in Hyde Park 02 July 2009)”
PERFORMER “Blur”
INDEX 01 44:33:63
TRACK 12 AUDIO
TITLE “Death Of A Party (Live in Hyde Park 02 July 2009)”
PERFORMER “Blur”
INDEX 01 50:27:39
TRACK 13 AUDIO
TITLE “For Tomorrow (Live in Hyde Park 02 July 2009)”
PERFORMER “Blur”
INDEX 01 55:43:73
TRACK 14 AUDIO
TITLE “The Universal (Live in Hyde Park 02 July 2009)”
PERFORMER “Blur”
INDEX 01 62:11:74


Leave a Reply

Your email address will not be published. Required fields are marked *

This site uses Akismet to reduce spam. Learn how your comment data is processed.