Blur – 13 (Limited Edition)




Artist: Blur
Year: 1999
Genre: Rock
Notes: Discogs
Add. Notes: Limited Edition
Cover incl.: Yes
Encoder: FLAC
Bitrate: ~800 kBit/s (44.1 kHz/16 Bit/s)
Log & Cue incl.: Yes
Size: 442,19 MB
Password: “slam” (without ” “)


All Downloads/Hosters are compatible

Download 1
Turbobit.net
Rapidgator.net
UploadEver.com
KatFile.com
UsersDrive.com
Download 2
Turbobit.net
Rapidgator.net
UploadEver.com
KatFile.com
UsersDrive.com
Download 3
Turbobit.net
Rapidgator.net
UploadEver.com
KatFile.com
UsersDrive.com

Tracklist:

1 - Tender - 7:40
2 - Bugman - 4:47
3 - Coffee & TV - 5:58
4 - Swamp Song - 4:36
5 - 1992 - 5:29
6 - B.L.U.R.E.M.I. - 2:52
7 - Battle - 7:43
8 - Mellow Song - 3:56
9 - Trailerpark - 4:26
10 - Caramel - 7:38
11 - Trimm Trabb - 5:37
12 - No Distance Left To Run - 3:27
13 - Optigan 1 - 2:34

EAC-Log, CUE-Sheed & NFO:

Click to open spoiler
Exact Audio Copy V0.99 prebeta 5 from 4. May 2009

EAC extraction logfile from 11. February 2010, 22:05

Blur / 13 FOODCDS29 (UK Box Edition)

Used drive : PIONEER DVD-RW DVR-218L Adapter: 3 ID: 0

Read mode : Secure
Utilize accurate stream : Yes
Defeat audio cache : Yes
Make use of C2 pointers : No

Read offset correction : 6
Overread into Lead-In and Lead-Out : No
Fill up missing offset samples with silence : Yes
Delete leading and trailing silent blocks : No
Null samples used in CRC calculations : Yes
Used interface : Native Win32 interface for Win NT & 2000

Used output format : User Defined Encoder
Selected bitrate : 896 kBit/s
Quality : High
Add ID3 tag : No
Command line compressor : C:\Program Files\Exact Audio Copy\FLAC\FLAC.EXE
Additional command line options : -8 -V -T “ARTIST=%a” -T “TITLE=%t” -T “ALBUM=%g” -T “DATE=%y” -T “TRACKNUMBER=%n” -T “GENRE=%m” -T “COMMENT=%e” %s -o %d

TOC of the extracted CD

Track | Start | Length | Start sector | End sector
———————————————————
1 | 0:00.00 | 7:40.55 | 0 | 34554
2 | 7:40.55 | 4:47.70 | 34555 | 56149
3 | 12:28.50 | 5:58.52 | 56150 | 83051
4 | 18:27.27 | 4:36.40 | 83052 | 103791
5 | 23:03.67 | 5:29.05 | 103792 | 128471
6 | 28:32.72 | 2:52.00 | 128472 | 141371
7 | 31:24.72 | 7:43.58 | 141372 | 176154
8 | 39:08.55 | 3:56.60 | 176155 | 193914
9 | 43:05.40 | 4:26.60 | 193915 | 213924
10 | 47:32.25 | 7:38.17 | 213925 | 248291
11 | 55:10.42 | 5:37.43 | 248292 | 273609
12 | 60:48.10 | 3:28.00 | 273610 | 289209
13 | 64:16.10 | 2:34.07 | 289210 | 300766
14 | 69:22.17 | 4:47.24 | 312167 | 333715

Range status and errors

Selected range

Filename E:\Music\Blur\Albums\1999 – 13 FOODCDS29 (UK Box Edition)\Blur – 13 FOODCDS29 (UK Box Edition).wav

Peak level 98.6 %
Range quality 100.0 %
Test CRC 8B35E399
Copy CRC 8B35E399
Copy OK

No errors occurred

AccurateRip summary

Track 1 accurately ripped (confidence 63) [6A7B5A90]
Track 2 accurately ripped (confidence 62) [CA6A4D22]
Track 3 accurately ripped (confidence 64) [499A61F4]
Track 4 accurately ripped (confidence 62) [67A132AF]
Track 5 accurately ripped (confidence 61) [194B40FF]
Track 6 accurately ripped (confidence 62) [BF4CCCF0]
Track 7 accurately ripped (confidence 60) [7D9AC5CB]
Track 8 accurately ripped (confidence 61) [8A772C03]
Track 9 accurately ripped (confidence 61) [5D621C70]
Track 10 accurately ripped (confidence 60) [73EB6456]
Track 11 accurately ripped (confidence 61) [23DE7609]
Track 12 accurately ripped (confidence 62) [25ADA457]
Track 13 accurately ripped (confidence 58) [FAB23E9D]

All tracks accurately ripped

End of status report

REM GENRE Indie
REM DATE 1999
REM DISCID CB11610E
REM COMMENT “ExactAudioCopy v0.99pb5”
PERFORMER “Blur”
TITLE “13 FOODCDS29 (UK Box Edition)”
FILE “Blur – 13 FOODCDS29 (UK Box Edition).flac” WAVE
TRACK 01 AUDIO
TITLE “Tender”
PERFORMER “Blur”
INDEX 01 00:00:00
TRACK 02 AUDIO
TITLE “Bugman”
PERFORMER “Blur”
INDEX 01 07:40:55
TRACK 03 AUDIO
TITLE “Coffee & TV”
PERFORMER “Blur”
INDEX 01 12:28:50
TRACK 04 AUDIO
TITLE “Swamp Song”
PERFORMER “Blur”
INDEX 01 18:27:27
TRACK 05 AUDIO
TITLE “1992”
PERFORMER “Blur”
INDEX 00 23:02:65
INDEX 01 23:03:67
TRACK 06 AUDIO
TITLE “B.L.U.R.E.M.I.”
PERFORMER “Blur”
INDEX 01 28:32:72
TRACK 07 AUDIO
TITLE “Battle”
PERFORMER “Blur”
INDEX 01 31:24:72
TRACK 08 AUDIO
TITLE “Mellow Song”
PERFORMER “Blur”
INDEX 01 39:08:55
TRACK 09 AUDIO
TITLE “Trailerpark”
PERFORMER “Blur”
INDEX 01 43:05:40
TRACK 10 AUDIO
TITLE “Caramel”
PERFORMER “Blur”
INDEX 01 47:32:25
TRACK 11 AUDIO
TITLE “Trimm Trabb”
PERFORMER “Blur”
INDEX 00 55:10:20
INDEX 01 55:10:42
TRACK 12 AUDIO
TITLE “No Distance Left to Run”
PERFORMER “Blur”
INDEX 01 60:48:10
TRACK 13 AUDIO
TITLE “Optigan 1”
PERFORMER “Blur”
INDEX 00 64:14:52
INDEX 01 64:16:10

Leave a Reply

Your email address will not be published. Required fields are marked *

Enter the text from the image below
 

This site uses Akismet to reduce spam. Learn how your comment data is processed.