Blur – 13 (Japanese Edition)




Artist: Blur
Year: 1999
Genre: Alternative
Notes: Discogs
Add. Notes: Japanese Edition
Cover incl.: Yes
Encoder: FLAC
Bitrate: ~800 kBit/s (44.1 kHz/16 Bit/s)
Log & Cue incl.: Yes
Size: 417,46 MB
Password: “slam” (without ” “)


All Downloads/Hosters are compatible

Download 1
Turbobit.net
Rapidgator.net
UploadEver.com
KatFile.com
UsersDrive.com
Download 2
Turbobit.net
Rapidgator.net
UploadEver.com
KatFile.com
UsersDrive.com
Download 3
Turbobit.net
Rapidgator.net
UploadEver.com
KatFile.com
UsersDrive.com

Tracklist:

1 - Tender - 7:40
2 - Bugman - 4:47
3 - Coffee & TV - 5:57
4 - Swamp Song - 4:35
5 - 1992 - 5:28
6 - B.L.U.R.E.M.I. - 2:51
7 - Battle - 7:42
8 - Mellow Song - 3:58
9 - Trailerpark - 4:26
10 - Caramel - 7:38
11 - Trimm Trabb - 5:37
12 - No Distance Left To Run - 3:25
13 - Optigan 1 - 2:31
14 - I Got Law (Demo Version) - 2:41

EAC-Log, CUE-Sheed & NFO:

Click to open spoiler
Exact Audio Copy V0.99 prebeta 5 from 4. May 2009

EAC extraction logfile from 7. July 2010, 16:48

Blur / 13 TOCP-65091 (Japan CD)

Used drive : PIONEER DVD-RW DVR-218L Adapter: 3 ID: 0

Read mode : Secure
Utilize accurate stream : Yes
Defeat audio cache : Yes
Make use of C2 pointers : No

Read offset correction : 6
Overread into Lead-In and Lead-Out : No
Fill up missing offset samples with silence : Yes
Delete leading and trailing silent blocks : No
Null samples used in CRC calculations : Yes
Used interface : Native Win32 interface for Win NT & 2000

Used output format : User Defined Encoder
Selected bitrate : 768 kBit/s
Quality : High
Add ID3 tag : No
Command line compressor : C:\Program Files\Exact Audio Copy\FLAC\FLAC.EXE
Additional command line options : -V -8 -T “artist=%a” -T “title=%t” -T “album=%g” -T “date=%y” -T “tracknumber=%n” -T “genre=%m” %s

TOC of the extracted CD

Track | Start | Length | Start sector | End sector
———————————————————
1 | 0:00.00 | 7:40.45 | 0 | 34544
2 | 7:40.45 | 4:47.70 | 34545 | 56139
3 | 12:28.40 | 5:58.52 | 56140 | 83041
4 | 18:27.17 | 4:36.65 | 83042 | 103806
5 | 23:04.07 | 5:28.53 | 103807 | 128459
6 | 28:32.60 | 2:53.47 | 128460 | 141481
7 | 31:26.32 | 7:42.23 | 141482 | 176154
8 | 39:08.55 | 3:56.47 | 176155 | 193901
9 | 43:05.27 | 4:26.73 | 193902 | 213924
10 | 47:32.25 | 7:38.07 | 213925 | 248281
11 | 55:10.32 | 5:37.43 | 248282 | 273599
12 | 60:48.00 | 3:28.10 | 273600 | 289209
13 | 64:16.10 | 2:33.62 | 289210 | 300746
14 | 66:49.72 | 2:41.65 | 300747 | 312886

Range status and errors

Selected range

Filename E:\Music\Blur\Albums\1999 – 13 TOCP-65091 (Japan CD)\13 TOCP-65091 (Japan CD).wav

Peak level 98.8 %
Range quality 100.0 %
Test CRC F2ED0EF9
Copy CRC F2ED0EF9
Copy OK

No errors occurred

AccurateRip summary

Track 1 cannot be verified as accurate (confidence 1) [EE0F4FF6], AccurateRip returned [602344B3]
Track 2 cannot be verified as accurate (confidence 1) [5614D88B], AccurateRip returned [6BAA9536]
Track 3 cannot be verified as accurate (confidence 1) [70219FAB], AccurateRip returned [A52AC931]
Track 4 cannot be verified as accurate (confidence 1) [53A1A5D9], AccurateRip returned [45C00CF7]
Track 5 cannot be verified as accurate (confidence 1) [AD0D2A59], AccurateRip returned [57494831]
Track 6 cannot be verified as accurate (confidence 1) [D447C4D2], AccurateRip returned [3E5D86BB]
Track 7 cannot be verified as accurate (confidence 1) [8DFD34A4], AccurateRip returned [94701FA0]
Track 8 cannot be verified as accurate (confidence 1) [6E0DACDB], AccurateRip returned [F935E21D]
Track 9 cannot be verified as accurate (confidence 1) [066A277C], AccurateRip returned [43A6A3DD]
Track 10 cannot be verified as accurate (confidence 1) [FD348EBC], AccurateRip returned [9F168E15]
Track 11 cannot be verified as accurate (confidence 1) [58AD34D0], AccurateRip returned [58104342]
Track 12 cannot be verified as accurate (confidence 1) [0654826E], AccurateRip returned [2161038C]
Track 13 cannot be verified as accurate (confidence 1) [8D3D8723], AccurateRip returned [95F9C8C0]
Track 14 cannot be verified as accurate (confidence 1) [0C572F4E], AccurateRip returned [43BB3C2C]

No tracks could be verified as accurate
You may have a different pressing from the one(s) in the database

End of status report

REM GENRE Indie
REM DATE 1999
REM DISCID C5104B0E
REM COMMENT “ExactAudioCopy v0.99pb5”
PERFORMER “Blur”
TITLE “13 TOCP-65091 (Japan CD)”
FILE “13 TOCP-65091 (Japan CD).flac” WAVE
TRACK 01 AUDIO
TITLE “Tender”
PERFORMER “Blur”
INDEX 01 00:00:00
TRACK 02 AUDIO
TITLE “Bugman”
PERFORMER “Blur”
INDEX 01 07:40:45
TRACK 03 AUDIO
TITLE “Coffee & TV”
PERFORMER “Blur”
INDEX 01 12:28:40
TRACK 04 AUDIO
TITLE “Swamp Song”
PERFORMER “Blur”
INDEX 00 18:25:52
INDEX 01 18:27:17
TRACK 05 AUDIO
TITLE “1992”
PERFORMER “Blur”
INDEX 00 23:02:45
INDEX 01 23:04:07
TRACK 06 AUDIO
TITLE “B.L.U.R.E.M.I.”
PERFORMER “Blur”
INDEX 01 28:32:60
TRACK 07 AUDIO
TITLE “Battle”
PERFORMER “Blur”
INDEX 00 31:24:47
INDEX 01 31:26:32
TRACK 08 AUDIO
TITLE “Mellow Song”
PERFORMER “Blur”
INDEX 01 39:08:55
TRACK 09 AUDIO
TITLE “Trailerpark”
PERFORMER “Blur”
INDEX 01 43:05:27
TRACK 10 AUDIO
TITLE “Caramel”
PERFORMER “Blur”
INDEX 01 47:32:25
TRACK 11 AUDIO
TITLE “Trimm Trabb”
PERFORMER “Blur”
INDEX 00 55:10:00
INDEX 01 55:10:32
TRACK 12 AUDIO
TITLE “No Distance Left To Run”
PERFORMER “Blur”
INDEX 01 60:48:00
TRACK 13 AUDIO
TITLE “Optigan 1”
PERFORMER “Blur”
INDEX 00 64:13:47
INDEX 01 64:16:10
TRACK 14 AUDIO
TITLE “I Got Law (Demo Version)”
PERFORMER “Blur”
INDEX 00 66:48:00
INDEX 01 66:49:72


Leave a Reply

Your email address will not be published. Required fields are marked *

This site uses Akismet to reduce spam. Learn how your comment data is processed.