Bloodhound Gang – Show Us Your Hits




Artist: Bloodhound Gang
Year: 2010
Genre: Rock
Notes: Discogs
Add. Notes:
Encoder: FLAC
Bitrate: ~900 kBit/s (VBR)
Size: 387,46 MB
Password: “slam” (without ” “)


Tracklist:

01 - Altogether Ooky (4:16)
02 - Fire Water Burn (4:56)
03 - Along Comes Mary (3:23)
04 - Foxtrot Uniform Charlie Kilo (2:55)
05 - The Bad Touch (4:25)
06 - No Hard Feelings (5:16)
07 - A Lap Dance Is So Much Better When The Stripper Is 
Crying (5:42)
08 - Kiss Me Where It Smells Funny (3:09)
09 - The Ballad Of Chasey Lain (2:26)
10 - Screwing You On The Beach At Night (3:44)
11 - Three Point One Four (4:00)
12 - You're Pretty When I'm Drunk (4:01)
13 - Uhn Tiss Uhn Tiss Uhn Tiss (4:24)
14 - I Hope You Die (3:47)
15 - Disco Pogo (3:25)

Click to open spoiler
Exact Audio Copy V1.0 beta 1 from 15. November 2010

EAC extraction logfile from 15. December 2010, 19:18

Bloodhound Gang / Show Us Your Hits

Used drive : TSSTcorpCDDVDW SE-S224Q Adapter: 7 ID: 0

Read mode : Secure
Utilize accurate stream : Yes
Defeat audio cache : Yes
Make use of C2 pointers : No

Read offset correction : 6
Overread into Lead-In and Lead-Out : No
Fill up missing offset samples with silence : Yes
Delete leading and trailing silent blocks : No
Null samples used in CRC calculations : No
Used interface : Native Win32 interface for Win NT & 2000
Gap handling : Appended to previous track

Used output format : User Defined Encoder
Selected bitrate : 768 kBit/s
Quality : High
Add ID3 tag : No
Command line compressor : C:\Program Files (x86)\Exact Audio Copy\FLAC\FLAC.EXE
Additional command line options : -6 -V -T “ARTIST=%a” -T “TITLE=%t” -T “ALBUM=%g” -T “DATE=%y” -T “TRACKNUMBER=%n” -T “GENRE=%m” -T “COMMENT=%e” %j–picture=”%i”%j %s -o %d

TOC of the extracted CD

Track | Start | Length | Start sector | End sector
———————————————————
1 | 0:00.00 | 4:16.19 | 0 | 19218
2 | 4:16.19 | 4:56.38 | 19219 | 41456
3 | 9:12.57 | 3:23.60 | 41457 | 56741
4 | 12:36.42 | 2:55.60 | 56742 | 69926
5 | 15:32.27 | 4:25.09 | 69927 | 89810
6 | 19:57.36 | 5:16.08 | 89811 | 113518
7 | 25:13.44 | 5:42.52 | 113519 | 139220
8 | 30:56.21 | 3:09.31 | 139221 | 153426
9 | 34:05.52 | 2:26.30 | 153427 | 164406
10 | 36:32.07 | 3:44.53 | 164407 | 181259
11 | 40:16.60 | 4:00.30 | 181260 | 199289
12 | 44:17.15 | 4:01.03 | 199290 | 217367
13 | 48:18.18 | 4:24.27 | 217368 | 237194
14 | 52:42.45 | 3:47.50 | 237195 | 254269
15 | 56:30.20 | 3:25.30 | 254270 | 269674

Track 1

Filename C:\Users\user\Desktop\Bloodhound Gang – Show Us Your Hits [FLAC]\01 Bloodhound Gang – Altogether Ooky.wav

Pre-gap length 0:00:02.00

Peak level 79.7 %
Extraction speed 2.1 X
Track quality 100.0 %
Test CRC F3FA2D82
Copy CRC F3FA2D82
Track not present in AccurateRip database
Copy OK

Track 2

Filename C:\Users\user\Desktop\Bloodhound Gang – Show Us Your Hits [FLAC]\02 Bloodhound Gang – Fire Water Burn.wav

Pre-gap length 0:00:04.43

Peak level 98.5 %
Extraction speed 1.9 X
Track quality 99.9 %
Test CRC 387567E6
Copy CRC 387567E6
Track not present in AccurateRip database
Copy OK

Track 3

Filename C:\Users\user\Desktop\Bloodhound Gang – Show Us Your Hits [FLAC]\03 Bloodhound Gang – Along Comes Mary.wav

Pre-gap length 0:00:05.03

Peak level 81.1 %
Extraction speed 2.0 X
Track quality 100.0 %
Test CRC 9F477046
Copy CRC 9F477046
Track not present in AccurateRip database
Copy OK

Track 4

Filename C:\Users\user\Desktop\Bloodhound Gang – Show Us Your Hits [FLAC]\04 Bloodhound Gang – Foxtrot Uniform Charlie Kilo.wav

Pre-gap length 0:00:04.01

Peak level 84.0 %
Extraction speed 2.0 X
Track quality 100.0 %
Test CRC 6DB5889F
Copy CRC 6DB5889F
Track not present in AccurateRip database
Copy OK

Track 5

Filename C:\Users\user\Desktop\Bloodhound Gang – Show Us Your Hits [FLAC]\05 Bloodhound Gang – The Bad Touch.wav

Pre-gap length 0:00:04.11

Peak level 98.8 %
Extraction speed 2.1 X
Track quality 100.0 %
Test CRC 29F5A9AD
Copy CRC 29F5A9AD
Track not present in AccurateRip database
Copy OK

Track 6

Filename C:\Users\user\Desktop\Bloodhound Gang – Show Us Your Hits [FLAC]\06 Bloodhound Gang – No Hard Feelings.wav

Pre-gap length 0:00:05.22

Peak level 98.8 %
Extraction speed 1.9 X
Track quality 99.9 %
Test CRC 43F2575D
Copy CRC 43F2575D
Track not present in AccurateRip database
Copy OK

Track 7

Filename C:\Users\user\Desktop\Bloodhound Gang – Show Us Your Hits [FLAC]\07 Bloodhound Gang – A Lap Dance Is So Much Better When The Stripper Is Crying.wav

Pre-gap length 0:00:04.05

Peak level 57.7 %
Extraction speed 2.0 X
Track quality 99.9 %
Test CRC 61F348B2
Copy CRC 61F348B2
Track not present in AccurateRip database
Copy OK

Track 8

Filename C:\Users\user\Desktop\Bloodhound Gang – Show Us Your Hits [FLAC]\08 Bloodhound Gang – Kiss Me Where It Smells Funny.wav

Pre-gap length 0:00:05.11

Peak level 98.8 %
Extraction speed 2.0 X
Track quality 100.0 %
Test CRC 54900EBC
Copy CRC 54900EBC
Track not present in AccurateRip database
Copy OK

Track 9

Filename C:\Users\user\Desktop\Bloodhound Gang – Show Us Your Hits [FLAC]\09 Bloodhound Gang – The Ballad Of Chasey Lain.wav

Pre-gap length 0:00:04.38

Peak level 78.7 %
Extraction speed 1.9 X
Track quality 100.0 %
Test CRC 7959ACF5
Copy CRC 7959ACF5
Track not present in AccurateRip database
Copy OK

Track 10

Filename C:\Users\user\Desktop\Bloodhound Gang – Show Us Your Hits [FLAC]\10 Bloodhound Gang – Screwing You On The Beach At Night.wav

Pre-gap length 0:00:04.30

Peak level 81.2 %
Extraction speed 2.1 X
Track quality 100.0 %
Test CRC D9EA132A
Copy CRC D9EA132A
Track not present in AccurateRip database
Copy OK

Track 11

Filename C:\Users\user\Desktop\Bloodhound Gang – Show Us Your Hits [FLAC]\11 Bloodhound Gang – Three Point One Four.wav

Pre-gap length 0:00:04.26

Peak level 70.1 %
Extraction speed 1.8 X
Track quality 99.9 %
Test CRC E4B1FC49
Copy CRC E4B1FC49
Track not present in AccurateRip database
Copy OK

Track 12

Filename C:\Users\user\Desktop\Bloodhound Gang – Show Us Your Hits [FLAC]\12 Bloodhound Gang – You’re Pretty When I’m Drunk.wav

Pre-gap length 0:00:05.13

Peak level 98.8 %
Extraction speed 2.1 X
Track quality 100.0 %
Test CRC E426ACBA
Copy CRC E426ACBA
Track not present in AccurateRip database
Copy OK

Track 13

Filename C:\Users\user\Desktop\Bloodhound Gang – Show Us Your Hits [FLAC]\13 Bloodhound Gang – Uhn Tiss Uhn Tiss Uhn Tiss.wav

Pre-gap length 0:00:04.64

Peak level 79.2 %
Extraction speed 2.1 X
Track quality 100.0 %
Test CRC 5E63100B
Copy CRC 5E63100B
Track not present in AccurateRip database
Copy OK

Track 14

Filename C:\Users\user\Desktop\Bloodhound Gang – Show Us Your Hits [FLAC]\14 Bloodhound Gang – I Hope You Die.wav

Pre-gap length 0:00:04.11

Peak level 94.5 %
Extraction speed 2.1 X
Track quality 100.0 %
Test CRC 9D9979CF
Copy CRC 9D9979CF
Track not present in AccurateRip database
Copy OK

Track 15

Filename C:\Users\user\Desktop\Bloodhound Gang – Show Us Your Hits [FLAC]\15 Bloodhound Gang – Disco Pogo.wav

Pre-gap length 0:00:07.73

Peak level 62.2 %
Extraction speed 2.0 X
Track quality 100.0 %
Test CRC 803F5AFB
Copy CRC 803F5AFB
Track not present in AccurateRip database
Copy OK

None of the tracks are present in the AccurateRip database

No errors occurred

End of status report

==== Log checksum 651985B6178408F4BD58181711A694DA2D263E887274BA5749D9E5173E5782DD ====

————–

REM GENRE Alternative
REM DATE 2010
REM DISCID E50E0B0F
REM COMMENT “ExactAudioCopy v1.0b1”
PERFORMER “Bloodhound Gang”
TITLE “Show Us Your Hits”
FILE “01 Bloodhound Gang – Altogether Ooky.wav” WAVE
TRACK 01 AUDIO
TITLE “Altogether Ooky”
PERFORMER “Bloodhound Gang”
INDEX 01 00:00:00
TRACK 02 AUDIO
TITLE “Fire Water Burn”
PERFORMER “Bloodhound Gang”
INDEX 00 04:11:51
FILE “02 Bloodhound Gang – Fire Water Burn.wav” WAVE
INDEX 01 00:00:00
TRACK 03 AUDIO
TITLE “Along Comes Mary”
PERFORMER “Bloodhound Gang”
INDEX 00 04:51:35
FILE “03 Bloodhound Gang – Along Comes Mary.wav” WAVE
INDEX 01 00:00:00
TRACK 04 AUDIO
TITLE “Foxtrot Uniform Charlie Kilo”
PERFORMER “Bloodhound Gang”
INDEX 00 03:19:59
FILE “04 Bloodhound Gang – Foxtrot Uniform Charlie Kilo.wav” WAVE
INDEX 01 00:00:00
TRACK 05 AUDIO
TITLE “The Bad Touch”
PERFORMER “Bloodhound Gang”
INDEX 00 02:51:49
FILE “05 Bloodhound Gang – The Bad Touch.wav” WAVE
INDEX 01 00:00:00
TRACK 06 AUDIO
TITLE “No Hard Feelings”
PERFORMER “Bloodhound Gang”
INDEX 00 04:19:62
FILE “06 Bloodhound Gang – No Hard Feelings.wav” WAVE
INDEX 01 00:00:00
TRACK 07 AUDIO
TITLE “A Lap Dance Is So Much Better When The Stripper Is Crying”
PERFORMER “Bloodhound Gang”
INDEX 00 05:12:03
FILE “07 Bloodhound Gang – A Lap Dance Is So Much Better When The Stripper Is Crying.wav” WAVE
INDEX 01 00:00:00
TRACK 08 AUDIO
TITLE “Kiss Me Where It Smells Funny”
PERFORMER “Bloodhound Gang”
INDEX 00 05:37:41
FILE “08 Bloodhound Gang – Kiss Me Where It Smells Funny.wav” WAVE
INDEX 01 00:00:00
TRACK 09 AUDIO
TITLE “The Ballad Of Chasey Lain”
PERFORMER “Bloodhound Gang”
INDEX 00 03:04:68
FILE “09 Bloodhound Gang – The Ballad Of Chasey Lain.wav” WAVE
INDEX 01 00:00:00
TRACK 10 AUDIO
TITLE “Screwing You On The Beach At Night”
PERFORMER “Bloodhound Gang”
INDEX 00 02:22:00
FILE “10 Bloodhound Gang – Screwing You On The Beach At Night.wav” WAVE
INDEX 01 00:00:00
TRACK 11 AUDIO
TITLE “Three Point One Four”
PERFORMER “Bloodhound Gang”
INDEX 00 03:40:27
FILE “11 Bloodhound Gang – Three Point One Four.wav” WAVE
INDEX 01 00:00:00
TRACK 12 AUDIO
TITLE “You’re Pretty When I’m Drunk”
PERFORMER “Bloodhound Gang”
INDEX 00 03:55:17
FILE “12 Bloodhound Gang – You’re Pretty When I’m Drunk.wav” WAVE
INDEX 01 00:00:00
TRACK 13 AUDIO
TITLE “Uhn Tiss Uhn Tiss Uhn Tiss”
PERFORMER “Bloodhound Gang”
INDEX 00 03:56:14
FILE “13 Bloodhound Gang – Uhn Tiss Uhn Tiss Uhn Tiss.wav” WAVE
INDEX 01 00:00:00
TRACK 14 AUDIO
TITLE “I Hope You Die”
PERFORMER “Bloodhound Gang”
INDEX 00 04:20:16
FILE “14 Bloodhound Gang – I Hope You Die.wav” WAVE
INDEX 01 00:00:00
TRACK 15 AUDIO
TITLE “Disco Pogo”
PERFORMER “Bloodhound Gang”
INDEX 00 03:39:52
FILE “15 Bloodhound Gang – Disco Pogo.wav” WAVE
INDEX 01 00:00:00

Leave a Reply

Your email address will not be published. Required fields are marked *

Enter the text from the image below
 

This site uses Akismet to reduce spam. Learn how your comment data is processed.