Blink-182 – Take Off Your Pants And Jacket




Artist: Blink-182
Year: 2001
Genre: Rock
Notes: Discogs
Add. Notes:
Encoder: FLAC
Bitrate: ~1000 kBit/s (44.1 kHz/16 Bit/s)
Bin/Cue incl.: Yes
Size: 302,41 MB
Password: “slam” (without ” “)


http://www.share-online.biz/dl/K28CMWRPJH

https://rapidgator.net/file/0eed03d4286952578fb7def3fa9f50ed

https://uploadbyte.com/s2ytubfy8mls

https://uploadever.com/rei0mmc1o5aa

https://justupload.io/0r0o8q94y8q1

Tracklist:

1 - Anthem Part Two - 3:48
2 - Online Songs - 2:25
3 - First Date - 2:51
4 - Happy Holidays, You Bastard - 0:42
5 - Story Of A Lonely Guy - 3:39
6 - The Rock Show - 2:51
7 - Stay Together For The Kids - 3:59
8 - Roller Coaster - 2:47
9 - Reckless Abandon - 3:06
10 - Everytime I Look For You - 3:05
11 - Give Me One Good Reason - 3:18
12 - Shut Up - 3:20
13 - Please Take Me Home - 3:05

EAC-Log, CUE-Sheed & NFO:

Click to open spoiler
Exact Audio Copy V0.99 prebeta 4 from 23. January 2008

EAC extraction logfile from 24. March 2009, 17:29

Blink-182 / Take Off Your Pants And Jacket

Used drive : ASUS DRW-1608P2S Adapter: 0 ID: 0

Read mode : Secure
Utilize accurate stream : Yes
Defeat audio cache : Yes
Make use of C2 pointers : No

Read offset correction : 48
Overread into Lead-In and Lead-Out : No
Fill up missing offset samples with silence : Yes
Delete leading and trailing silent blocks : No
Null samples used in CRC calculations : Yes
Used interface : Installed external ASPI interface
Gap handling : Appended to previous track

Used output format : User Defined Encoder
Selected bitrate : 320 kBit/s
Quality : High
Add ID3 tag : No
Command line compressor : C:\Program Files\Exact Audio Copy\FLAC\FLAC.EXE
Additional command line options : -8 -V -T “ARTIST=%a” -T “TITLE=%t” -T “ALBUM=%g” -T “DATE=%y” -T “TRACKNUMBER=%n” -T “GENRE=%m” -T “COMMENT=EAC FLAC -8” %s

TOC of the extracted CD

Track | Start | Length | Start sector | End sector
———————————————————
1 | 0:00.00 | 3:48.07 | 0 | 17106
2 | 3:48.07 | 2:25.58 | 17107 | 28039
3 | 6:13.65 | 2:51.40 | 28040 | 40904
4 | 9:05.30 | 0:42.22 | 40905 | 44076
5 | 9:47.52 | 3:39.58 | 44077 | 60559
6 | 13:27.35 | 2:51.45 | 60560 | 73429
7 | 16:19.05 | 3:59.25 | 73430 | 91379
8 | 20:18.30 | 2:47.50 | 91380 | 103954
9 | 23:06.05 | 3:06.05 | 103955 | 117909
10 | 26:12.10 | 3:05.32 | 117910 | 131816
11 | 29:17.42 | 3:18.55 | 131817 | 146721
12 | 32:36.22 | 3:20.12 | 146722 | 161733
13 | 35:56.34 | 3:05.61 | 161734 | 175669

Track 1

Filename F:\01 – Anthem Part Two.wav

Pre-gap length 0:00:02.00

Peak level 98.8 %
Track quality 100.0 %
Test CRC BAEDF331
Copy CRC BAEDF331
Accurately ripped (confidence 11) [07AD48EB]
Copy OK

Track 2

Filename F:\02 – Online Songs.wav

Peak level 98.8 %
Track quality 99.9 %
Test CRC 9493606E
Copy CRC 9493606E
Accurately ripped (confidence 12) [B7638605]
Copy OK

Track 3

Filename F:\03 – First Date.wav

Peak level 98.9 %
Track quality 100.0 %
Test CRC AF96F31E
Copy CRC AF96F31E
Accurately ripped (confidence 12) [8A30F5EE]
Copy OK

Track 4

Filename F:\04 – Happy Holidays, You Bastard.wav

Peak level 99.0 %
Track quality 100.0 %
Test CRC 63A17B27
Copy CRC 63A17B27
Accurately ripped (confidence 12) [65648B7D]
Copy OK

Track 5

Filename F:\05 – Story Of A Lonely Guy.wav

Peak level 98.8 %
Track quality 100.0 %
Test CRC 51AA37A5
Copy CRC 51AA37A5
Accurately ripped (confidence 12) [373708EF]
Copy OK

Track 6

Filename F:\06 – The Rock Show.wav

Peak level 99.3 %
Track quality 100.0 %
Test CRC 5DF6341C
Copy CRC 5DF6341C
Accurately ripped (confidence 11) [8BA7CB86]
Copy OK

Track 7

Filename F:\07 – Stay Together For The Kids.wav

Peak level 98.8 %
Track quality 100.0 %
Test CRC C11E5CA6
Copy CRC C11E5CA6
Accurately ripped (confidence 11) [F82D4B92]
Copy OK

Track 8

Filename F:\08 – Roller Coaster.wav

Peak level 98.8 %
Track quality 100.0 %
Test CRC 1EC0F9F3
Copy CRC 1EC0F9F3
Accurately ripped (confidence 11) [4FDAF735]
Copy OK

Track 9

Filename F:\09 – Reckless Abandon.wav

Peak level 98.8 %
Track quality 100.0 %
Test CRC 11BAEBF4
Copy CRC 11BAEBF4
Accurately ripped (confidence 11) [5F9E22FD]
Copy OK

Track 10

Filename F:\10 – Everytime I Look For You.wav

Peak level 98.8 %
Track quality 100.0 %
Test CRC 8411F875
Copy CRC 8411F875
Accurately ripped (confidence 10) [30751598]
Copy OK

Track 11

Filename F:\11 – Give Me One Good Reason.wav

Peak level 98.8 %
Track quality 100.0 %
Test CRC 563EE0EE
Copy CRC 563EE0EE
Accurately ripped (confidence 9) [00F1C278]
Copy OK

Track 12

Filename F:\12 – Shut Up.wav

Peak level 98.8 %
Track quality 100.0 %
Test CRC 3C4DA65C
Copy CRC 3C4DA65C
Accurately ripped (confidence 11) [7C233B76]
Copy OK

Track 13

Filename F:\13 – Please Take Me Home.wav

Peak level 99.8 %
Track quality 100.0 %
Test CRC 6486392C
Copy CRC 6486392C
Accurately ripped (confidence 9) [407D48F3]
Copy OK

All tracks accurately ripped

No errors occurred

End of status report

REM GENRE “Punk Rock”
REM DATE 2001
REM DISCID C609260D
REM COMMENT “ExactAudioCopy v0.99pb4”
PERFORMER “Blink-182”
TITLE “Take Off Your Pants And Jacket”
FILE “01 – Anthem Part Two.wav” WAVE
TRACK 01 AUDIO
TITLE “Anthem Part Two”
PERFORMER “Blink-182”
INDEX 01 00:00:00
FILE “02 – Online Songs.wav” WAVE
TRACK 02 AUDIO
TITLE “Online Songs”
PERFORMER “Blink-182”
INDEX 01 00:00:00
FILE “03 – First Date.wav” WAVE
TRACK 03 AUDIO
TITLE “First Date”
PERFORMER “Blink-182”
INDEX 01 00:00:00
FILE “04 – Happy Holidays, You Bastard.wav” WAVE
TRACK 04 AUDIO
TITLE “Happy Holidays, You Bastard”
PERFORMER “Blink-182”
INDEX 01 00:00:00
FILE “05 – Story Of A Lonely Guy.wav” WAVE
TRACK 05 AUDIO
TITLE “Story Of A Lonely Guy”
PERFORMER “Blink-182”
INDEX 01 00:00:00
FILE “06 – The Rock Show.wav” WAVE
TRACK 06 AUDIO
TITLE “The Rock Show”
PERFORMER “Blink-182”
INDEX 01 00:00:00
FILE “07 – Stay Together For The Kids.wav” WAVE
TRACK 07 AUDIO
TITLE “Stay Together For The Kids”
PERFORMER “Blink-182”
INDEX 01 00:00:00
FILE “08 – Roller Coaster.wav” WAVE
TRACK 08 AUDIO
TITLE “Roller Coaster”
PERFORMER “Blink-182”
INDEX 01 00:00:00
FILE “09 – Reckless Abandon.wav” WAVE
TRACK 09 AUDIO
TITLE “Reckless Abandon”
PERFORMER “Blink-182”
INDEX 01 00:00:00
FILE “10 – Everytime I Look For You.wav” WAVE
TRACK 10 AUDIO
TITLE “Everytime I Look For You”
PERFORMER “Blink-182”
INDEX 01 00:00:00
FILE “11 – Give Me One Good Reason.wav” WAVE
TRACK 11 AUDIO
TITLE “Give Me One Good Reason”
PERFORMER “Blink-182”
INDEX 01 00:00:00
FILE “12 – Shut Up.wav” WAVE
TRACK 12 AUDIO
TITLE “Shut Up”
PERFORMER “Blink-182”
INDEX 01 00:00:00
FILE “13 – Please Take Me Home.wav” WAVE
TRACK 13 AUDIO
TITLE “Please Take Me Home”
PERFORMER “Blink-182”
INDEX 01 00:00:00

Leave a Reply

Your email address will not be published. Required fields are marked *

This site uses Akismet to reduce spam. Learn how your comment data is processed.