Blink-182 – Take Off Your Pants And Jacket (Yellow Version) (Limited Edition)




Artist: Blink-182
Year: 2001
Genre: Punk
Notes: Discogs
Add. Notes: Limited Edition
Cover incl.: Yes
Encoder: FLAC
Bitrate: ~1000 kBit/s (44.1 kHz/16 Bit/s)
Log & Cue incl.: Yes
Size: 325,03 MB
Password: “slam” (without ” “)


All Downloads/Hosters are compatible

Download 1
Turbobit.net
Rapidgator.net
UploadByte.com
UploadEver.com
JustUpload.io
Download 2
Turbobit.net
Rapidgator.net
UploadByte.com
UploadEver.com
JustUpload.io
Download 3
Turbobit.net
Rapidgator.net
UploadByte.com
UploadEver.com
JustUpload.io

Tracklist:

1 - Anthem Part Two - 3:47
2 - Online Songs - 2:25
3 - First Date - 2:51
4 - Happy Holidays, You B*****d - 0:42
5 - Story Of A Lonely Guy - 3:39
6 - The Rock Show - 2:51
7 - Stay Together For The Kids - 3:59
8 - Roller Coaster - 2:47
9 - Reckless Abandon - 3:06
10 - Everytime I Look For You - 3:05
11 - Give Me One Good Reason - 3:18
12 - Shut Up - 3:20
13 - Please Take Me Home - 3:07
14 - What Went Wrong? - 3:14
15 - Time To Break Up - 3:04
16 - Fuck A Dog - 1:26

EAC-Log, CUE-Sheed & NFO:

Click to open spoiler
EAC extraction logfile from 31. March 2007, 13:25 for CD
Blink 182 / Take Off Your Pants And Jacket

Used drive : SONY DVD-ROM DDU1615 Adapter: 5 ID: 0
Read mode : Secure with NO C2, accurate stream, disable cache
Read offset correction : 6
Overread into Lead-In and Lead-Out : No

Used output format : C:\Program Files\Encoders\FLAC\flac.exe (User Defined Encoder)
128 kBit/s
Additional command line options : -8 -V -T “artist=%a” -T “title=%t” -T “album=%g” -T “date=%y” -T “tracknumber=%n” -T “genre=%m” %s

Other options :
Fill up missing offset samples with silence : Yes
Delete leading and trailing silent blocks : No
Installed external ASPI interface

Track 1
Filename E:\Upload\Blink 182 – Take Off Your Pants And Jacket\01 – Anthem Part Two.wav

Pre-gap length 0:00:02.00

Peak level 98.8 %
Track quality 99.9 %
Test CRC 568B7D6A
Copy CRC 568B7D6A
Copy OK

Track 2
Filename E:\Upload\Blink 182 – Take Off Your Pants And Jacket\02 – Online Songs.wav

Peak level 98.8 %
Track quality 100.0 %
Test CRC 169137D7
Copy CRC 169137D7
Copy OK

Track 3
Filename E:\Upload\Blink 182 – Take Off Your Pants And Jacket\03 – First Date.wav

Peak level 98.9 %
Track quality 100.0 %
Test CRC B22D742D
Copy CRC B22D742D
Copy OK

Track 4
Filename E:\Upload\Blink 182 – Take Off Your Pants And Jacket\04 – Happy Hollidays, You Bastard.wav

Peak level 99.0 %
Track quality 100.0 %
Test CRC 7A2157A7
Copy CRC 7A2157A7
Copy OK

Track 5
Filename E:\Upload\Blink 182 – Take Off Your Pants And Jacket\05 – Story Of A Lonely Guy.wav

Peak level 98.8 %
Track quality 100.0 %
Test CRC 1BF106B8
Copy CRC 1BF106B8
Copy OK

Track 6
Filename E:\Upload\Blink 182 – Take Off Your Pants And Jacket\06 – The Rock Show.wav

Peak level 99.3 %
Track quality 100.0 %
Test CRC C32F36AA
Copy CRC C32F36AA
Copy OK

Track 7
Filename E:\Upload\Blink 182 – Take Off Your Pants And Jacket\07 – Stay Together For The Kids.wav

Peak level 98.8 %
Track quality 100.0 %
Test CRC C97F6D91
Copy CRC C97F6D91
Copy OK

Track 8
Filename E:\Upload\Blink 182 – Take Off Your Pants And Jacket\08 – Roller Coaster.wav

Peak level 98.8 %
Track quality 100.0 %
Test CRC E227E7A7
Copy CRC E227E7A7
Copy OK

Track 9
Filename E:\Upload\Blink 182 – Take Off Your Pants And Jacket\09 – Reckless Abandon.wav

Peak level 98.8 %
Track quality 100.0 %
Test CRC 3B6CA44B
Copy CRC 3B6CA44B
Copy OK

Track 10
Filename E:\Upload\Blink 182 – Take Off Your Pants And Jacket\10 – Everytime I Look For You.wav

Peak level 98.8 %
Track quality 100.0 %
Test CRC B2559A62
Copy CRC B2559A62
Copy OK

Track 11
Filename E:\Upload\Blink 182 – Take Off Your Pants And Jacket\11 – Give Me One Good Reason.wav

Peak level 98.8 %
Track quality 100.0 %
Test CRC DE1D6C39
Copy CRC DE1D6C39
Copy OK

Track 12
Filename E:\Upload\Blink 182 – Take Off Your Pants And Jacket\12 – Shut Up.wav

Peak level 98.8 %
Track quality 99.9 %
Test CRC FD46092F
Copy CRC FD46092F
Copy OK

Track 13
Filename E:\Upload\Blink 182 – Take Off Your Pants And Jacket\13 – Please Take Me Home.wav

Peak level 99.8 %
Track quality 100.0 %
Test CRC 03CC2227
Copy CRC 03CC2227
Copy OK

Track 14
Filename E:\Upload\Blink 182 – Take Off Your Pants And Jacket\14 – What Went Wrong.wav

Pre-gap length 0:03:01.50

Peak level 98.8 %
Track quality 100.0 %
Test CRC 2F7F79E4
Copy CRC 2F7F79E4
Copy OK

Track 15
Filename E:\Upload\Blink 182 – Take Off Your Pants And Jacket\15 – Bonus Track 2.wav

Peak level 98.8 %
Track quality 100.0 %
Test CRC F96E2B5D
Copy CRC F96E2B5D
Copy OK

No errors occured

End of status report

REM GENRE “Punk Rock”
REM DATE 2001
REM DISCID E60AF40F
REM COMMENT “ExactAudioCopy v0.95b4”
CATALOG 0000881126282
PERFORMER “Blink 182”
TITLE “Take Off Your Pants And Jacket”
FILE “01 – Anthem Part Two.wav” WAVE
TRACK 01 AUDIO
TITLE “Anthem Part Two”
PERFORMER “Blink 182”
ISRC USMC10110872
INDEX 01 00:00:00
FILE “02 – Online Songs.wav” WAVE
TRACK 02 AUDIO
TITLE “Online Songs”
PERFORMER “Blink 182”
ISRC USMC10110873
INDEX 01 00:00:00
FILE “03 – First Date.wav” WAVE
TRACK 03 AUDIO
TITLE “First Date”
PERFORMER “Blink 182”
ISRC USMC10110874
INDEX 01 00:00:00
FILE “04 – Happy Hollidays, You Bastard.wav” WAVE
TRACK 04 AUDIO
TITLE “Happy Hollidays, You Bastard”
PERFORMER “Blink 182”
ISRC USMC10110875
INDEX 01 00:00:00
FILE “05 – Story Of A Lonely Guy.wav” WAVE
TRACK 05 AUDIO
TITLE “Story Of A Lonely Guy”
PERFORMER “Blink 182”
ISRC USMC10110876
INDEX 01 00:00:00
FILE “06 – The Rock Show.wav” WAVE
TRACK 06 AUDIO
TITLE “The Rock Show”
PERFORMER “Blink 182”
ISRC USMC10110768
INDEX 01 00:00:00
FILE “07 – Stay Together For The Kids.wav” WAVE
TRACK 07 AUDIO
TITLE “Stay Together For The Kids”
PERFORMER “Blink 182”
ISRC USMC10110877
INDEX 01 00:00:00
FILE “08 – Roller Coaster.wav” WAVE
TRACK 08 AUDIO
TITLE “Roller Coaster”
PERFORMER “Blink 182”
ISRC USMC10110878
INDEX 01 00:00:00
FILE “09 – Reckless Abandon.wav” WAVE
TRACK 09 AUDIO
TITLE “Reckless Abandon”
PERFORMER “Blink 182”
ISRC USMC10110879
INDEX 01 00:00:00
FILE “10 – Everytime I Look For You.wav” WAVE
TRACK 10 AUDIO
TITLE “Everytime I Look For You”
PERFORMER “Blink 182”
ISRC USMC10110880
INDEX 01 00:00:00
FILE “11 – Give Me One Good Reason.wav” WAVE
TRACK 11 AUDIO
TITLE “Give Me One Good Reason”
PERFORMER “Blink 182”
ISRC USMC10110880
INDEX 01 00:00:00
FILE “12 – Shut Up.wav” WAVE
TRACK 12 AUDIO
TITLE “Shut Up”
PERFORMER “Blink 182”
ISRC USMC10110881
INDEX 01 00:00:00
FILE “13 – Please Take Me Home.wav” WAVE
TRACK 13 AUDIO
TITLE “Please Take Me Home”
PERFORMER “Blink 182”
ISRC USMC10110883
INDEX 01 00:00:00
TRACK 14 AUDIO
TITLE “What Went Wrong”
PERFORMER “Blink 182”
ISRC USMC10110884
INDEX 00 03:05:50
FILE “14 – What Went Wrong.wav” WAVE
INDEX 01 00:00:00
FILE “15 – Fuck A Dog.wav” WAVE
TRACK 15 AUDIO
TITLE “Fuck A Dog”
PERFORMER “Blink 182”
ISRC USMC10110888
INDEX 01 00:00:00

Leave a Reply

Your email address will not be published. Required fields are marked *

This site uses Akismet to reduce spam. Learn how your comment data is processed.