Blink-182 – Take Off Your Pants And Jacket (Red Version) (Limited Edition)




Artist: Blink-182
Year: 2001
Genre: Rock
Notes: Discogs
Add. Notes: Limited Edition
Encoder: FLAC
Bitrate: ~1000 kBit/s (44.1 kHz/16 Bit/s)
Bin/Cue incl.: Yes
Size: 327,58 MB
Password: “slam” (without ” “)


http://www.share-online.biz/dl/V2AODVRPKR8

https://rapidgator.net/file/b434707037e85186ecd0bf69bb5100a1

https://uploadbyte.com/as5cns7yjufk

https://uploadever.com/rct67t4xbyoi

https://justupload.io/b752c3nz23a7

Tracklist:

1 - Anthem Part Two - 3:48
2 - Online Songs - 2:25
3 - First Date - 2:51
4 - Happy Holiday, You Bastard - 0:42
5 - Story Of A Lonely Guy - 3:39
6 - The Rock Show - 2:51
7 - Stay Together For The Kids - 3:59
8 - Roller Coaster - 2:47
9 - Reckless Abandon - 3:06
10 - Everytime I Look For You - 3:05
11 - Give Me One Good Reason - 3:18
12 - Shut Up - 3:20
13 - Please Take Me Home - 3:05
14 - Time To Break Up - 3:03
15 - Mother's Day - 1:37

EAC-Log, CUE-Sheed & NFO:

Click to open spoiler
Exact Audio Copy V0.99 prebeta 4 from 23. January 2008

EAC extraction logfile from 16. December 2008, 17:13

Blink-182 / Take Off Your Pants And Jacket

Used drive : TSSTcorpCDDVDW SH-S223Q Adapter: 2 ID: 1

Read mode : Secure
Utilize accurate stream : Yes
Defeat audio cache : Yes
Make use of C2 pointers : No

Read offset correction : 6
Overread into Lead-In and Lead-Out : No
Fill up missing offset samples with silence : Yes
Delete leading and trailing silent blocks : No
Null samples used in CRC calculations : Yes
Used interface : Native Win32 interface for Win NT & 2000
Gap handling : Appended to previous track

Used output format : User Defined Encoder
Selected bitrate : 768 kBit/s
Quality : High
Add ID3 tag : No
Command line compressor : C:\Program Files\FLAC\flac.exe
Additional command line options : -V -8 -T “artist=%a” -T “title=%t” -T “album=%g” -T “date=%y” -T “tracknumber=%n” %s

TOC of the extracted CD

Track | Start | Length | Start sector | End sector
———————————————————
1 | 0:00.00 | 3:48.10 | 0 | 17109
2 | 3:48.10 | 2:25.55 | 17110 | 28039
3 | 6:13.65 | 2:51.40 | 28040 | 40904
4 | 9:05.30 | 0:42.30 | 40905 | 44084
5 | 9:47.60 | 3:39.52 | 44085 | 60561
6 | 13:27.37 | 2:51.43 | 60562 | 73429
7 | 16:19.05 | 3:59.27 | 73430 | 91381
8 | 20:18.32 | 2:47.45 | 91382 | 103951
9 | 23:06.02 | 3:06.08 | 103952 | 117909
10 | 26:12.10 | 3:05.35 | 117910 | 131819
11 | 29:17.45 | 3:18.52 | 131820 | 146721
12 | 32:36.22 | 3:20.15 | 146722 | 161736
13 | 35:56.37 | 6:06.65 | 161737 | 189251
14 | 42:03.27 | 3:03.53 | 189252 | 203029
15 | 45:07.05 | 1:35.62 | 203030 | 210216

Track 1

Filename C:\Hi there RIAA, What’s up IFPI\Blink-182 – Take Off Your Pants And Jacket\01 – Anthem Part Two.wav

Pre-gap length 0:00:02.00

Peak level 98.8 %
Track quality 99.9 %
Test CRC E2012379
Copy CRC E2012379
Accurately ripped (confidence 2) [723EB745]
Copy OK

Track 2

Filename C:\Hi there RIAA, What’s up IFPI\Blink-182 – Take Off Your Pants And Jacket\02 – Online Songs.wav

Peak level 98.8 %
Track quality 100.0 %
Test CRC 0D76574C
Copy CRC 0D76574C
Accurately ripped (confidence 2) [4AEF4B8B]
Copy OK

Track 3

Filename C:\Hi there RIAA, What’s up IFPI\Blink-182 – Take Off Your Pants And Jacket\03 – First Date.wav

Peak level 98.9 %
Track quality 100.0 %
Test CRC 3C4ADAAE
Copy CRC 3C4ADAAE
Accurately ripped (confidence 2) [603796CA]
Copy OK

Track 4

Filename C:\Hi there RIAA, What’s up IFPI\Blink-182 – Take Off Your Pants And Jacket\04 – Happy Holidays, You Bastard.wav

Peak level 99.0 %
Track quality 100.0 %
Test CRC 5983872E
Copy CRC 5983872E
Accurately ripped (confidence 2) [32BBC9FB]
Copy OK

Track 5

Filename C:\Hi there RIAA, What’s up IFPI\Blink-182 – Take Off Your Pants And Jacket\05 – Story Of A Lonely Guy.wav

Peak level 98.8 %
Track quality 100.0 %
Test CRC E0B54F11
Copy CRC E0B54F11
Accurately ripped (confidence 2) [7380BF95]
Copy OK

Track 6

Filename C:\Hi there RIAA, What’s up IFPI\Blink-182 – Take Off Your Pants And Jacket\06 – The Rock Show.wav

Peak level 99.3 %
Track quality 100.0 %
Test CRC FCE477E9
Copy CRC FCE477E9
Accurately ripped (confidence 2) [E3B529A1]
Copy OK

Track 7

Filename C:\Hi there RIAA, What’s up IFPI\Blink-182 – Take Off Your Pants And Jacket\07 – Stay Together For The Kids.wav

Peak level 98.8 %
Track quality 100.0 %
Test CRC 10EACFEC
Copy CRC 10EACFEC
Accurately ripped (confidence 2) [D4473AE6]
Copy OK

Track 8

Filename C:\Hi there RIAA, What’s up IFPI\Blink-182 – Take Off Your Pants And Jacket\08 – Roller Coaster.wav

Peak level 98.8 %
Track quality 100.0 %
Test CRC 12EA046F
Copy CRC 12EA046F
Accurately ripped (confidence 2) [C76FB218]
Copy OK

Track 9

Filename C:\Hi there RIAA, What’s up IFPI\Blink-182 – Take Off Your Pants And Jacket\09 – Reckless Abandon.wav

Peak level 98.8 %
Track quality 100.0 %
Test CRC 96FC9957
Copy CRC 96FC9957
Accurately ripped (confidence 2) [9C0AE54A]
Copy OK

Track 10

Filename C:\Hi there RIAA, What’s up IFPI\Blink-182 – Take Off Your Pants And Jacket\10 – Everytime I Look For You.wav

Peak level 98.8 %
Track quality 100.0 %
Test CRC 17E3520D
Copy CRC 17E3520D
Accurately ripped (confidence 2) [733CD171]
Copy OK

Track 11

Filename C:\Hi there RIAA, What’s up IFPI\Blink-182 – Take Off Your Pants And Jacket\11 – Give Me One Good Reason.wav

Peak level 98.8 %
Track quality 100.0 %
Test CRC 9AE6946A
Copy CRC 9AE6946A
Accurately ripped (confidence 2) [2201EFCF]
Copy OK

Track 12

Filename C:\Hi there RIAA, What’s up IFPI\Blink-182 – Take Off Your Pants And Jacket\12 – Shut Up.wav

Peak level 98.8 %
Track quality 100.0 %
Test CRC 55AE2515
Copy CRC 55AE2515
Accurately ripped (confidence 2) [368A31C3]
Copy OK

Track 13

Filename C:\Hi there RIAA, What’s up IFPI\Blink-182 – Take Off Your Pants And Jacket\13 – Please Take Me Home.wav

Peak level 99.8 %
Track quality 100.0 %
Test CRC F614F9E8
Copy CRC F614F9E8
Accurately ripped (confidence 2) [032DFC4C]
Copy OK

Track 14

Filename C:\Hi there RIAA, What’s up IFPI\Blink-182 – Take Off Your Pants And Jacket\14 – Time To Break Up.wav

Pre-gap length 0:03:01.36

Peak level 98.8 %
Track quality 100.0 %
Test CRC 3325D777
Copy CRC 3325D777
Accurately ripped (confidence 2) [3BA53B50]
Copy OK

Track 15

Filename C:\Hi there RIAA, What’s up IFPI\Blink-182 – Take Off Your Pants And Jacket\15 – Fuck A Dog.wav

Peak level 88.1 %
Track quality 100.0 %
Test CRC A6A936DE
Copy CRC A6A936DE
Accurately ripped (confidence 2) [394D78B4]
Copy OK

All tracks accurately ripped

No errors occurred

End of status report

REM DATE 2001
REM DISCID E60AF20F
REM COMMENT “ExactAudioCopy v0.99pb4”
PERFORMER “Blink-182”
TITLE “Take Off Your Pants And Jacket”
FILE “01 – Anthem Part Two.wav” WAVE
TRACK 01 AUDIO
TITLE “Anthem Part Two”
PERFORMER “Blink-182”
INDEX 01 00:00:00
FILE “02 – Online Songs.wav” WAVE
TRACK 02 AUDIO
TITLE “Online Songs”
PERFORMER “Blink-182”
INDEX 01 00:00:00
FILE “03 – First Date.wav” WAVE
TRACK 03 AUDIO
TITLE “First Date”
PERFORMER “Blink-182”
INDEX 01 00:00:00
FILE “04 – Happy Holidays, You Bastard.wav” WAVE
TRACK 04 AUDIO
TITLE “Happy Holidays, You Bastard”
PERFORMER “Blink-182”
INDEX 01 00:00:00
FILE “05 – Story Of A Lonely Guy.wav” WAVE
TRACK 05 AUDIO
TITLE “Story Of A Lonely Guy”
PERFORMER “Blink-182”
INDEX 01 00:00:00
FILE “06 – The Rock Show.wav” WAVE
TRACK 06 AUDIO
TITLE “The Rock Show”
PERFORMER “Blink-182”
INDEX 01 00:00:00
FILE “07 – Stay Together For The Kids.wav” WAVE
TRACK 07 AUDIO
TITLE “Stay Together For The Kids”
PERFORMER “Blink-182”
INDEX 01 00:00:00
FILE “08 – Roller Coaster.wav” WAVE
TRACK 08 AUDIO
TITLE “Roller Coaster”
PERFORMER “Blink-182”
INDEX 01 00:00:00
FILE “09 – Reckless Abandon.wav” WAVE
TRACK 09 AUDIO
TITLE “Reckless Abandon”
PERFORMER “Blink-182”
INDEX 01 00:00:00
FILE “10 – Everytime I Look For You.wav” WAVE
TRACK 10 AUDIO
TITLE “Everytime I Look For You”
PERFORMER “Blink-182”
INDEX 01 00:00:00
FILE “11 – Give Me One Good Reason.wav” WAVE
TRACK 11 AUDIO
TITLE “Give Me One Good Reason”
PERFORMER “Blink-182”
INDEX 01 00:00:00
FILE “12 – Shut Up.wav” WAVE
TRACK 12 AUDIO
TITLE “Shut Up”
PERFORMER “Blink-182”
INDEX 01 00:00:00
FILE “13 – Please Take Me Home.wav” WAVE
TRACK 13 AUDIO
TITLE “Please Take Me Home”
PERFORMER “Blink-182”
INDEX 01 00:00:00
TRACK 14 AUDIO
TITLE “Time To Break Up”
PERFORMER “Blink-182”
INDEX 00 03:05:38
FILE “14 – Time To Break Up.wav” WAVE
INDEX 01 00:00:00
FILE “15 – Mother’s Day.wav” WAVE
TRACK 15 AUDIO
TITLE “Mother’s Day”
PERFORMER “Blink-182”
INDEX 01 00:00:00

Leave a Reply

Your email address will not be published. Required fields are marked *

This site uses Akismet to reduce spam. Learn how your comment data is processed.