Blink-182 – Take Off Your Pants And Jacket (Green Version) (Limited Edition)




Artist: Blink-182
Year: 2001
Genre: Punk
Notes: Discogs
Add. Notes: Limited Edition
Encoder: FLAC
Bitrate: ~1000 kBit/s (44.1 kHz/16 Bit/s)
Bin/Cue incl.: Yes
Size: 322,14 MB
Password: “slam” (without ” “)


http://www.share-online.biz/dl/OKNCYSRPES
https://rapidgator.net/file/10ceae00f93e06a5f3aaa6eb08b34638
https://uploadbyte.com/0l5p0v3z6h8a
https://uploadever.com/sceyitxviqvs

Tracklist:

1 - Anthem Part Two - 3:48
2 - Online Songs - 2:25
3 - First Date - 2:51
4 - Happy Holidays, You Bastard - 0:42
5 - Story Of A Lonely Guy - 3:39
6 - The Rock Show - 2:51
7 - Stay Together For The Kids - 3:59
8 - Roller Coaster - 2:47
9 - Reckless Abandon - 3:06
10 - Everytime I Look For You - 3:05
11 - Give Me One Good Reason - 3:18
12 - Shut Up - 3:20
13 - Please Take Me Home - 3:05
14 - Don't Tell Me It's Over - 2:33
15 - When You Fucked Grandpa - 1:39

EAC-Log, CUE-Sheed & NFO:

Click to open spoiler
Exact Audio Copy V0.99 prebeta 4 from 23. January 2008

EAC extraction logfile from 15. May 2009, 0:44

blink-182 / Take Off Your Pants And Jacket (Green Edition)

Used drive : HL-DT-STBDDVDRW GGC-H20L Adapter: 4 ID: 0

Read mode : Secure
Utilize accurate stream : Yes
Defeat audio cache : Yes
Make use of C2 pointers : No

Read offset correction : 667
Overread into Lead-In and Lead-Out : No
Fill up missing offset samples with silence : Yes
Delete leading and trailing silent blocks : No
Null samples used in CRC calculations : Yes
Used interface : Native Win32 interface for Win NT & 2000
Gap handling : Appended to previous track

Used output format : User Defined Encoder
Selected bitrate : 224 kBit/s
Quality : High
Add ID3 tag : No
Command line compressor : C:\Program Files (x86)\FLAC\flac.exe
Additional command line options : -V -8 -T “artist=%a” -T “title=%t” -T “album=%g” -T “date=%y” -T “tracknumber=%n” -T “genre=%m” %s

TOC of the extracted CD

Track | Start | Length | Start sector | End sector
———————————————————
1 | 0:00.00 | 3:48.13 | 0 | 17112
2 | 3:48.13 | 2:25.50 | 17113 | 28037
3 | 6:13.63 | 2:51.43 | 28038 | 40905
4 | 9:05.31 | 0:42.27 | 40906 | 44082
5 | 9:47.58 | 3:39.53 | 44083 | 60560
6 | 13:27.36 | 2:51.48 | 60561 | 73433
7 | 16:19.09 | 3:59.22 | 73434 | 91380
8 | 20:18.31 | 2:47.46 | 91381 | 103951
9 | 23:06.02 | 3:06.11 | 103952 | 117912
10 | 26:12.13 | 3:05.32 | 117913 | 131819
11 | 29:17.45 | 3:18.54 | 131820 | 146723
12 | 32:36.24 | 3:20.14 | 146724 | 161737
13 | 35:56.38 | 6:08.09 | 161738 | 189346
14 | 42:04.47 | 2:33.41 | 189347 | 200862
15 | 44:38.13 | 1:39.14 | 200863 | 208301

Track 1

Filename E:\Music\blink-182\Take Off Your Pants And Jacket (Green Edition)\01 Anthem Part Two.wav

Pre-gap length 0:00:02.00

Peak level 98.8 %
Track quality 100.0 %
Test CRC 811AA7C9
Copy CRC 811AA7C9
Accurately ripped (confidence 18) [3F2F88F8]
Copy OK

Track 2

Filename E:\Music\blink-182\Take Off Your Pants And Jacket (Green Edition)\02 Online Songs.wav

Peak level 98.8 %
Track quality 100.0 %
Test CRC FBC99C46
Copy CRC FBC99C46
Accurately ripped (confidence 16) [CA8897E9]
Copy OK

Track 3

Filename E:\Music\blink-182\Take Off Your Pants And Jacket (Green Edition)\03 First Date.wav

Peak level 98.9 %
Track quality 100.0 %
Test CRC 1F2AA422
Copy CRC 1F2AA422
Accurately ripped (confidence 17) [17008BD5]
Copy OK

Track 4

Filename E:\Music\blink-182\Take Off Your Pants And Jacket (Green Edition)\04 Happy Holidays, You Bastard.wav

Peak level 99.0 %
Track quality 100.0 %
Test CRC 557F9BC7
Copy CRC 557F9BC7
Accurately ripped (confidence 16) [DF1B339A]
Copy OK

Track 5

Filename E:\Music\blink-182\Take Off Your Pants And Jacket (Green Edition)\05 Story Of A Lonely Guy.wav

Peak level 98.8 %
Track quality 100.0 %
Test CRC 924336AF
Copy CRC 924336AF
Accurately ripped (confidence 18) [14FB1747]
Copy OK

Track 6

Filename E:\Music\blink-182\Take Off Your Pants And Jacket (Green Edition)\06 The Rock Show.wav

Peak level 99.3 %
Track quality 100.0 %
Test CRC 6BCD2B74
Copy CRC 6BCD2B74
Accurately ripped (confidence 16) [28ADC99A]
Copy OK

Track 7

Filename E:\Music\blink-182\Take Off Your Pants And Jacket (Green Edition)\07 Stay Together For The Kids.wav

Peak level 98.8 %
Track quality 100.0 %
Test CRC 65F715BA
Copy CRC 65F715BA
Accurately ripped (confidence 17) [8EE2D638]
Copy OK

Track 8

Filename E:\Music\blink-182\Take Off Your Pants And Jacket (Green Edition)\08 Roller Coaster.wav

Peak level 98.8 %
Track quality 100.0 %
Test CRC 0A8DDA69
Copy CRC 0A8DDA69
Accurately ripped (confidence 17) [FF400126]
Copy OK

Track 9

Filename E:\Music\blink-182\Take Off Your Pants And Jacket (Green Edition)\09 Reckless Abandon.wav

Peak level 98.8 %
Track quality 100.0 %
Test CRC A3ED64C2
Copy CRC A3ED64C2
Accurately ripped (confidence 17) [28EF27A2]
Copy OK

Track 10

Filename E:\Music\blink-182\Take Off Your Pants And Jacket (Green Edition)\10 Everytime I Look For You.wav

Peak level 98.8 %
Track quality 100.0 %
Test CRC 8347FFD8
Copy CRC 8347FFD8
Accurately ripped (confidence 17) [D67D9933]
Copy OK

Track 11

Filename E:\Music\blink-182\Take Off Your Pants And Jacket (Green Edition)\11 Give Me One Good Reason.wav

Peak level 98.8 %
Track quality 100.0 %
Test CRC C59AABCD
Copy CRC C59AABCD
Accurately ripped (confidence 17) [70A48881]
Copy OK

Track 12

Filename E:\Music\blink-182\Take Off Your Pants And Jacket (Green Edition)\12 Shut Up.wav

Peak level 98.8 %
Track quality 100.0 %
Test CRC 4C4A3622
Copy CRC 4C4A3622
Accurately ripped (confidence 17) [5EA6F557]
Copy OK

Track 13

Filename E:\Music\blink-182\Take Off Your Pants And Jacket (Green Edition)\13 Please Take Me Home.wav

Peak level 99.8 %
Track quality 100.0 %
Test CRC 53E07C24
Copy CRC 53E07C24
Accurately ripped (confidence 15) [6357B697]
Copy OK

Track 14

Filename E:\Music\blink-182\Take Off Your Pants And Jacket (Green Edition)\14 Don’t Tell Me It’s Over.wav

Pre-gap length 0:03:02.29

Peak level 98.8 %
Track quality 100.0 %
Test CRC E54E69F9
Copy CRC E54E69F9
Accurately ripped (confidence 17) [8151610B]
Copy OK

Track 15

Filename E:\Music\blink-182\Take Off Your Pants And Jacket (Green Edition)\15 When You Fucked Grandpa.wav

Peak level 94.2 %
Track quality 100.0 %
Test CRC 173130BF
Copy CRC 173130BF
Accurately ripped (confidence 17) [B9D5FC93]
Copy OK

All tracks accurately ripped

No errors occurred

End of status report

REM DATE 2001
REM DISCID E50AD90F
REM COMMENT “ExactAudioCopy v0.99pb4”
PERFORMER “blink-182”
TITLE “Take Off Your Pants And Jacket (Green Edition)”
FILE “01 – Anthem Part Two.wav” WAVE
TRACK 01 AUDIO
TITLE “Anthem Part Two”
PERFORMER “blink-182”
INDEX 01 00:00:00
FILE “02 – Online Songs.wav” WAVE
TRACK 02 AUDIO
TITLE “Online Songs”
PERFORMER “blink-182”
INDEX 01 00:00:00
FILE “03 – First Date.wav” WAVE
TRACK 03 AUDIO
TITLE “First Date”
PERFORMER “blink-182”
INDEX 01 00:00:00
FILE “04 – Happy Holidays, You Bastard.wav” WAVE
TRACK 04 AUDIO
TITLE “Happy Holidays, You Bastard”
PERFORMER “blink-182”
INDEX 01 00:00:00
FILE “05 – Story Of A Lonely Guy.wav” WAVE
TRACK 05 AUDIO
TITLE “Story Of A Lonely Guy”
PERFORMER “blink-182”
INDEX 01 00:00:00
FILE “06 – The Rock Show.wav” WAVE
TRACK 06 AUDIO
TITLE “The Rock Show”
PERFORMER “blink-182”
INDEX 01 00:00:00
FILE “07 – Stay Together For The Kids.wav” WAVE
TRACK 07 AUDIO
TITLE “Stay Together For The Kids”
PERFORMER “blink-182”
INDEX 01 00:00:00
FILE “08 – Roller Coaster.wav” WAVE
TRACK 08 AUDIO
TITLE “Roller Coaster”
PERFORMER “blink-182”
INDEX 01 00:00:00
FILE “09 – Reckless Abandon.wav” WAVE
TRACK 09 AUDIO
TITLE “Reckless Abandon”
PERFORMER “blink-182”
INDEX 01 00:00:00
FILE “10 – Everytime I Look For You.wav” WAVE
TRACK 10 AUDIO
TITLE “Everytime I Look For You”
PERFORMER “blink-182”
INDEX 01 00:00:00
FILE “11 – Give Me One Good Reason.wav” WAVE
TRACK 11 AUDIO
TITLE “Give Me One Good Reason”
PERFORMER “blink-182”
INDEX 01 00:00:00
FILE “12 – Shut Up.wav” WAVE
TRACK 12 AUDIO
TITLE “Shut Up”
PERFORMER “blink-182”
INDEX 01 00:00:00
FILE “13 – Please Take Me Home.wav” WAVE
TRACK 13 AUDIO
TITLE “Please Take Me Home”
PERFORMER “blink-182”
INDEX 01 00:00:00
TRACK 14 AUDIO
TITLE “Don’t Tell Me It’s Over”
PERFORMER “blink-182”
INDEX 00 03:05:62
FILE “14 – Don’t Tell Me It’s Over.wav” WAVE
INDEX 01 00:00:00
FILE “15 – When You Fucked Grandpa.wav” WAVE
TRACK 15 AUDIO
TITLE “When You Fucked Grandpa”
PERFORMER “blink-182”
INDEX 01 00:00:00

Leave a Reply

Your email address will not be published. Required fields are marked *

This site uses Akismet to reduce spam. Learn how your comment data is processed.