Blink-182 – Neighborhoods (Deluxe Edition)




Artist: Blink-182
Year: 2011
Genre: Punk
Notes: Discogs
Add. Notes: Deluxe Edition
Cover incl.: Yes
Encoder: FLAC
Bitrate: ~900 kBit/s (44.1 kHz/16 Bit/s)
Log & Cue incl.: Yes
Size: 363,69 MB
Password: “slam” (without ” “)


All Downloads/Hosters are compatible

Download 1
Turbobit.net
Rapidgator.net
UploadByte.com
UploadEver.com
JustUpload.io
Download 2
Turbobit.net
Rapidgator.net
UploadByte.com
UploadEver.com
JustUpload.io
Download 3
Turbobit.net
Rapidgator.net
UploadByte.com
UploadEver.com
JustUpload.io

Tracklist:

1 - Ghost On The Dance Floor - 4:17
2 - Natives - 3:55
3 - Up All Night - 3:20
4 - After Midnight - 3:25
5 - Snake Charmer - 4:27
6 - Heart's All Gone Interlude - 2:02
7 - Heart's All Gone - 3:15
8 - Wishing Well - 3:20
9 - Kaleidoscope - 3:52
10 - This Is Home - 2:46
11 - MH 4.18.2011 - 3:27
12 - Love Is Dangerous - 4:27
13 - Fighting The Gravity - 3:42
14 - Even If She Falls - 3:00

EAC-Log, CUE-Sheed & NFO:

Click to open spoiler
Exact Audio Copy V1.0 beta 3 from 29. August 2011

EAC extraction logfile from 14. October 2011, 15:02

Blink-182 / Neighborhoods (Deluxe Edition)

Used drive : ASUS DRW-22B2S Adapter: 0 ID: 1

Read mode : Secure
Utilize accurate stream : Yes
Defeat audio cache : Yes
Make use of C2 pointers : No

Read offset correction : 6
Overread into Lead-In and Lead-Out : No
Fill up missing offset samples with silence : Yes
Delete leading and trailing silent blocks : No
Null samples used in CRC calculations : Yes
Used interface : Native Win32 interface for Win NT & 2000
Gap handling : Appended to previous track

Used output format : User Defined Encoder
Selected bitrate : 1024 kBit/s
Quality : High
Add ID3 tag : No
Command line compressor : F:\soft\Program Files\Exact Audio Copy\Flac\flac.exe
Additional command line options : -V -8 -T “Genre=%genre%” -T “Artist=%artist%” -T “Title=%title%” -T “Album=%albumtitle%” -T “Date=%year%” -T “Tracknumber=%tracknr%” %source%

TOC of the extracted CD

Track | Start | Length | Start sector | End sector
———————————————————
1 | 0:00.00 | 4:17.39 | 0 | 19313
2 | 4:17.39 | 3:55.11 | 19314 | 36949
3 | 8:12.50 | 3:20.00 | 36950 | 51949
4 | 11:32.50 | 3:26.69 | 51950 | 67468
5 | 14:59.44 | 4:26.34 | 67469 | 87452
6 | 19:26.03 | 2:02.27 | 87453 | 96629
7 | 21:28.30 | 3:14.58 | 96630 | 111237
8 | 24:43.13 | 3:21.03 | 111238 | 126315
9 | 28:04.16 | 3:52.42 | 126316 | 143757
10 | 31:56.58 | 2:46.60 | 143758 | 156267
11 | 34:43.43 | 3:27.05 | 156268 | 171797
12 | 38:10.48 | 4:25.61 | 171798 | 191733
13 | 42:36.34 | 3:42.32 | 191734 | 208415
14 | 46:18.66 | 2:59.66 | 208416 | 221906

Track 1

Filename D:\01 – Ghost On The Dance Floor.wav

Pre-gap length 0:00:02.00

Peak level 99.9 %
Extraction speed 5.7 X
Track quality 100.0 %
Test CRC 207974E7
Copy CRC 207974E7
Track not present in AccurateRip database
Copy OK

Track 2

Filename D:\02 – Natives.wav

Peak level 100.0 %
Extraction speed 6.2 X
Track quality 100.0 %
Test CRC 2680E5C2
Copy CRC 2680E5C2
Track not present in AccurateRip database
Copy OK

Track 3

Filename D:\03 – Up All Night.wav

Peak level 98.8 %
Extraction speed 6.4 X
Track quality 100.0 %
Test CRC 84A1AECB
Copy CRC 84A1AECB
Track not present in AccurateRip database
Copy OK

Track 4

Filename D:\04 – After Midnight.wav

Pre-gap length 0:00:00.22

Peak level 98.8 %
Extraction speed 6.8 X
Track quality 100.0 %
Test CRC 09896397
Copy CRC 09896397
Track not present in AccurateRip database
Copy OK

Track 5

Filename D:\05 – Snake Charmer.wav

Pre-gap length 0:00:00.04

Peak level 98.8 %
Extraction speed 7.4 X
Track quality 100.0 %
Test CRC 5BDF4FC0
Copy CRC 5BDF4FC0
Track not present in AccurateRip database
Copy OK

Track 6

Filename D:\06 – Heart’s All Gone Interlude.wav

Peak level 78.0 %
Extraction speed 6.6 X
Track quality 100.0 %
Test CRC 877DAC91
Copy CRC 877DAC91
Track not present in AccurateRip database
Copy OK

Track 7

Filename D:\07 – Heart’s All Gone.wav

Peak level 100.0 %
Extraction speed 7.6 X
Track quality 100.0 %
Test CRC 00CD52E4
Copy CRC 00CD52E4
Track not present in AccurateRip database
Copy OK

Track 8

Filename D:\08 – Wishing Well.wav

Peak level 100.0 %
Extraction speed 7.9 X
Track quality 100.0 %
Test CRC C0C2DE67
Copy CRC C0C2DE67
Track not present in AccurateRip database
Copy OK

Track 9

Filename D:\09 – Kaleidoscope.wav

Pre-gap length 0:00:00.51

Peak level 100.0 %
Extraction speed 8.4 X
Track quality 100.0 %
Test CRC ED17A5F3
Copy CRC ED17A5F3
Track not present in AccurateRip database
Copy OK

Track 10

Filename D:\10 – This Is Home.wav

Peak level 100.0 %
Extraction speed 8.1 X
Track quality 100.0 %
Test CRC 312D2B87
Copy CRC 312D2B87
Track not present in AccurateRip database
Copy OK

Track 11

Filename D:\11 – MH 4.18.2011.wav

Peak level 100.0 %
Extraction speed 8.6 X
Track quality 100.0 %
Test CRC 3FB630B7
Copy CRC 3FB630B7
Track not present in AccurateRip database
Copy OK

Track 12

Filename D:\12 – Love Is Dangerous.wav

Peak level 100.0 %
Extraction speed 9.3 X
Track quality 100.0 %
Test CRC 258F8200
Copy CRC 258F8200
Track not present in AccurateRip database
Copy OK

Track 13

Filename D:\13 – Fighting The Gravity.wav

Peak level 98.8 %
Extraction speed 8.2 X
Track quality 99.9 %
Test CRC E600E50C
Copy CRC E600E50C
Track not present in AccurateRip database
Copy OK

Track 14

Filename D:\14 – Even If She Falls.wav

Pre-gap length 0:00:00.17

Peak level 98.8 %
Extraction speed 9.2 X
Track quality 100.0 %
Test CRC 67572EA0
Copy CRC 67572EA0
Track not present in AccurateRip database
Copy OK

None of the tracks are present in the AccurateRip database

No errors occurred

End of status report

==== Log checksum 646CC58AA079156936F43B8F6D04452EAB25D2A12FC76812AD902110BAF8A1C8 ====

REM GENRE Pop-Punk
REM DATE 2011
REM DISCID D90B8E0E
REM COMMENT “ExactAudioCopy v1.0b3”
CATALOG 0602527813943
PERFORMER “Blink-182”
TITLE “Neighborhoods (Deluxe Edition)”
FILE “01 – Ghost On The Dance Floor.wav” WAVE
TRACK 01 AUDIO
TITLE “Ghost On The Dance Floor”
PERFORMER “Blink-182”
ISRC H2MM71113888
INDEX 01 00:00:00
FILE “02 – Natives.wav” WAVE
TRACK 02 AUDIO
TITLE “Natives”
PERFORMER “Blink-182”
ISRC H2MM71113881
INDEX 01 00:00:00
FILE “03 – Up All Night.wav” WAVE
TRACK 03 AUDIO
TITLE “Up All Night”
PERFORMER “Blink-182”
ISRC H2MM71110923
INDEX 01 00:00:00
TRACK 04 AUDIO
TITLE “After Midnight”
PERFORMER “Blink-182”
ISRC H2MM71113893
INDEX 00 03:19:53
FILE “04 – After Midnight.wav” WAVE
INDEX 01 00:00:00
TRACK 05 AUDIO
TITLE “Snake Charmer”
PERFORMER “Blink-182”
ISRC H2MM71113892
INDEX 00 03:26:65
FILE “05 – Snake Charmer.wav” WAVE
INDEX 01 00:00:00
FILE “06 – Heart’s All Gone Interlude.wav” WAVE
TRACK 06 AUDIO
TITLE “Heart’s All Gone Interlude”
PERFORMER “Blink-182”
ISRC H2MM71113892
INDEX 01 00:00:00
FILE “07 – Heart’s All Gone.wav” WAVE
TRACK 07 AUDIO
TITLE “Heart’s All Gone”
PERFORMER “Blink-182”
ISRC H2MM71113890
INDEX 01 00:00:00
FILE “08 – Wishing Well.wav” WAVE
TRACK 08 AUDIO
TITLE “Wishing Well”
PERFORMER “Blink-182”
ISRC H2MM71113884
INDEX 01 00:00:00
TRACK 09 AUDIO
TITLE “Kaleidoscope”
PERFORMER “Blink-182”
ISRC H2MM71113897
INDEX 00 03:20:27
FILE “09 – Kaleidoscope.wav” WAVE
INDEX 01 00:00:00
FILE “10 – This Is Home.wav” WAVE
TRACK 10 AUDIO
TITLE “This Is Home”
PERFORMER “Blink-182”
ISRC H2MM71113886
INDEX 01 00:00:00
FILE “11 – MH 4.18.2011.wav” WAVE
TRACK 11 AUDIO
TITLE “MH 4.18.2011”
PERFORMER “Blink-182”
ISRC H2MM71113891
INDEX 01 00:00:00
FILE “12 – Love Is Dangerous.wav” WAVE
TRACK 12 AUDIO
TITLE “Love Is Dangerous”
PERFORMER “Blink-182”
ISRC H2MM71113891
INDEX 01 00:00:00
FILE “13 – Fighting The Gravity.wav” WAVE
TRACK 13 AUDIO
TITLE “Fighting The Gravity”
PERFORMER “Blink-182”
ISRC H2MM71113880
INDEX 01 00:00:00
TRACK 14 AUDIO
TITLE “Even If She Falls”
PERFORMER “Blink-182”
ISRC H2MM71113894
INDEX 00 03:42:15
FILE “14 – Even If She Falls.wav” WAVE
INDEX 01 00:00:00

Leave a Reply

Your email address will not be published. Required fields are marked *

This site uses Akismet to reduce spam. Learn how your comment data is processed.