Blink-182 – he Mark, Tom And Travis Show (The Enema Strikes Back!) (Limited Edition)




Artist: Blink-182
Year: 2000
Genre: Punk
Notes: Discogs
Add. Notes: Limited Edition
Cover incl.: Yes
Encoder: FLAC
Bitrate: ~800 kBit/s (44.1 kHz/16 Bit/s)
Log & Cue incl.: Yes
Size: 530,15 MB
Password: “slam” (without ” “)


All Downloads/Hosters are compatible

Download 1
Turbobit.net
Rapidgator.net
UploadEver.com
JustUpload.io
UsersDrive.com
Download 2
Turbobit.net
Rapidgator.net
UploadEver.com
JustUpload.io
UsersDrive.com
Download 3
Turbobit.net
Rapidgator.net
UploadEver.com
JustUpload.io
UsersDrive.com

Tracklist:

1 - Dumpweed - 2:53
2 - Don't Leave Me - 2:38
3 - Aliens Exist - 3:43
4 - Family Reunion - 0:51
5 - Going Away To College - 3:40
6 - What's My Age Again? - 3:18
7 - Dick Lips - 3:35
8 - Blow Job - 0:40
9 - Untitled - 2:51
10 - Voyeur - 4:35
11 - Pathetic - 2:51
12 - Adam's Song - 4:35
13 - Peggy Sue - 3:47
14 - Wendy Clear - 4:09
15 - Carousel - 3:38
16 - All The Small Things - 3:35
17 - Mutt - 3:39
18 - The Country Song - 1:00
19 - Dammit - 3:05
20 - Man Overboard - 2:46
21-49 - Untitled

EAC-Log, CUE-Sheed & NFO:

Click to open spoiler
Exact Audio Copy V0.99 prebeta 4 from 23. January 2008

EAC extraction logfile from 27. March 2009, 12:49

Blink-182 / The Mark, Tom & Travis Show

Used drive : ASUS DRW-1608P2S Adapter: 0 ID: 0

Read mode : Secure
Utilize accurate stream : Yes
Defeat audio cache : Yes
Make use of C2 pointers : No

Read offset correction : 48
Overread into Lead-In and Lead-Out : No
Fill up missing offset samples with silence : Yes
Delete leading and trailing silent blocks : No
Null samples used in CRC calculations : Yes
Used interface : Installed external ASPI interface
Gap handling : Appended to previous track

Used output format : User Defined Encoder
Selected bitrate : 320 kBit/s
Quality : High
Add ID3 tag : No
Command line compressor : C:\Program Files\Exact Audio Copy\FLAC\FLAC.EXE
Additional command line options : -8 -V -T “ARTIST=%a” -T “TITLE=%t” -T “ALBUM=%g” -T “DATE=%y” -T “TRACKNUMBER=%n” -T “GENRE=%m” -T “COMMENT=EAC FLAC -8” %s

TOC of the extracted CD

Track | Start | Length | Start sector | End sector
———————————————————
1 | 0:00.00 | 2:53.25 | 0 | 12999
2 | 2:53.25 | 2:38.00 | 13000 | 24849
3 | 5:31.25 | 3:43.45 | 24850 | 41619
4 | 9:14.70 | 0:51.22 | 41620 | 45466
5 | 10:06.17 | 3:40.38 | 45467 | 62004
6 | 13:46.55 | 3:18.20 | 62005 | 76874
7 | 17:05.00 | 3:35.52 | 76875 | 93051
8 | 20:40.52 | 0:40.63 | 93052 | 96114
9 | 21:21.40 | 3:07.15 | 96115 | 110154
10 | 24:28.55 | 3:28.50 | 110155 | 125804
11 | 27:57.30 | 2:51.07 | 125805 | 138636
12 | 30:48.37 | 4:35.38 | 138637 | 159299
13 | 35:24.00 | 3:47.67 | 159300 | 176391
14 | 39:11.67 | 4:09.55 | 176392 | 195121
15 | 43:21.47 | 3:38.50 | 195122 | 211521
16 | 47:00.22 | 3:35.45 | 211522 | 227691
17 | 50:35.67 | 3:39.70 | 227692 | 244186
18 | 54:15.62 | 1:00.15 | 244187 | 248701
19 | 55:16.02 | 3:05.68 | 248702 | 262644
20 | 58:21.70 | 2:46.55 | 262645 | 275149
21 | 61:08.50 | 0:22.55 | 275150 | 276854
22 | 61:31.30 | 0:38.02 | 276855 | 279706
23 | 62:09.32 | 0:34.53 | 279707 | 282309
24 | 62:44.10 | 0:09.00 | 282310 | 282984
25 | 62:53.10 | 0:21.00 | 282985 | 284559
26 | 63:14.10 | 0:35.37 | 284560 | 287221
27 | 63:49.47 | 0:16.45 | 287222 | 288466
28 | 64:06.17 | 0:07.13 | 288467 | 289004
29 | 64:13.30 | 0:18.25 | 289005 | 290379
30 | 64:31.55 | 0:18.42 | 290380 | 291771
31 | 64:50.22 | 0:25.25 | 291772 | 293671
32 | 65:15.47 | 0:27.00 | 293672 | 295696
33 | 65:42.47 | 0:11.50 | 295697 | 296571
34 | 65:54.22 | 0:25.10 | 296572 | 298456
35 | 66:19.32 | 0:33.00 | 298457 | 300931
36 | 66:52.32 | 0:17.68 | 300932 | 302274
37 | 67:10.25 | 0:19.45 | 302275 | 303744
38 | 67:29.70 | 0:42.20 | 303745 | 306914
39 | 68:12.15 | 0:22.22 | 306915 | 308586
40 | 68:34.37 | 0:10.10 | 308587 | 309346
41 | 68:44.47 | 0:10.08 | 309347 | 310104
42 | 68:54.55 | 0:35.35 | 310105 | 312764
43 | 69:30.15 | 0:17.55 | 312765 | 314094
44 | 69:47.70 | 0:05.30 | 314095 | 314499
45 | 69:53.25 | 0:14.50 | 314500 | 315599
46 | 70:08.00 | 0:22.10 | 315600 | 317259
47 | 70:30.10 | 0:18.15 | 317260 | 318624
48 | 70:48.25 | 0:06.00 | 318625 | 319074
49 | 70:54.25 | 0:55.12 | 319075 | 323211

Track 1

Filename F:\01 – Dumpweed.wav

Pre-gap length 0:00:02.00

Peak level 98.8 %
Track quality 99.9 %
Test CRC E5044573
Copy CRC E5044573
Accurately ripped (confidence 3) [281476F9]
Copy OK

Track 2

Filename F:\02 – Don’t Leave Me.wav

Peak level 98.8 %
Track quality 100.0 %
Test CRC 39B2493B
Copy CRC 39B2493B
Accurately ripped (confidence 3) [4ADC127F]
Copy OK

Track 3

Filename F:\03 – Aliens Exist.wav

Peak level 98.8 %
Track quality 100.0 %
Test CRC 772421CF
Copy CRC 772421CF
Accurately ripped (confidence 3) [4EB9BA9F]
Copy OK

Track 4

Filename F:\04 – Family Reunion.wav

Peak level 98.8 %
Track quality 100.0 %
Test CRC 16702112
Copy CRC 16702112
Accurately ripped (confidence 3) [015A1CF1]
Copy OK

Track 5

Filename F:\05 – Going Away To College.wav

Peak level 98.8 %
Track quality 99.9 %
Test CRC B4F2DD96
Copy CRC B4F2DD96
Accurately ripped (confidence 3) [7E9828EA]
Copy OK

Track 6

Filename F:\06 – What’s My Age Again .wav

Peak level 98.8 %
Track quality 100.0 %
Test CRC F0A99092
Copy CRC F0A99092
Accurately ripped (confidence 3) [4E7677A1]
Copy OK

Track 7

Filename F:\07 – Rich Lips.wav

Peak level 98.8 %
Track quality 100.0 %
Test CRC 3C24EA56
Copy CRC 3C24EA56
Accurately ripped (confidence 3) [F43B0E21]
Copy OK

Track 8

Filename F:\08 – Blew Job.wav

Peak level 98.8 %
Track quality 99.7 %
Test CRC CE83D5CA
Copy CRC CE83D5CA
Accurately ripped (confidence 4) [75D37682]
Copy OK

Track 9

Filename F:\09 – Untitled.wav

Peak level 98.8 %
Track quality 100.0 %
Test CRC EBC2E757
Copy CRC EBC2E757
Accurately ripped (confidence 3) [C0167EE1]
Copy OK

Track 10

Filename F:\10 – Voyeur.wav

Peak level 98.8 %
Track quality 100.0 %
Test CRC 292F0AE4
Copy CRC 292F0AE4
Accurately ripped (confidence 3) [16D27445]
Copy OK

Track 11

Filename F:\11 – Pathetic.wav

Peak level 98.8 %
Track quality 100.0 %
Test CRC A1492930
Copy CRC A1492930
Accurately ripped (confidence 3) [F8FDE4BB]
Copy OK

Track 12

Filename F:\12 – Adam’s Song.wav

Peak level 98.8 %
Track quality 100.0 %
Test CRC 93170AC4
Copy CRC 93170AC4
Accurately ripped (confidence 3) [18D4D319]
Copy OK

Track 13

Filename F:\13 – Peggy Sue.wav

Peak level 98.8 %
Track quality 100.0 %
Test CRC 88FC9911
Copy CRC 88FC9911
Accurately ripped (confidence 3) [A8F9E4E0]
Copy OK

Track 14

Filename F:\14 – Wendy Clear.wav

Peak level 98.8 %
Track quality 99.9 %
Test CRC 19FA6A8E
Copy CRC 19FA6A8E
Accurately ripped (confidence 3) [74C37011]
Copy OK

Track 15

Filename F:\15 – Carousel.wav

Peak level 98.8 %
Track quality 100.0 %
Test CRC D08F3145
Copy CRC D08F3145
Accurately ripped (confidence 3) [38CC97D9]
Copy OK

Track 16

Filename F:\16 – All The Small Things.wav

Peak level 98.8 %
Track quality 100.0 %
Test CRC 5A053EC7
Copy CRC 5A053EC7
Accurately ripped (confidence 3) [DBCB8137]
Copy OK

Track 17

Filename F:\17 – Mutt.wav

Peak level 98.8 %
Track quality 100.0 %
Test CRC 2A58F1AA
Copy CRC 2A58F1AA
Accurately ripped (confidence 3) [3D8CE396]
Copy OK

Track 18

Filename F:\18 – The Country Song.wav

Peak level 98.8 %
Track quality 100.0 %
Test CRC 15B6C663
Copy CRC 15B6C663
Accurately ripped (confidence 4) [556F5778]
Copy OK

Track 19

Filename F:\19 – Dammit.wav

Peak level 98.8 %
Track quality 100.0 %
Test CRC 1CCBBD7D
Copy CRC 1CCBBD7D
Accurately ripped (confidence 3) [188D29A7]
Copy OK

Track 20

Filename F:\20 – Man Overboard.wav

Peak level 98.8 %
Track quality 100.0 %
Test CRC A7DD3A5C
Copy CRC A7DD3A5C
Accurately ripped (confidence 3) [9494F1F2]
Copy OK

Track 21

Filename F:\21 – Nudist Colony.wav

Peak level 98.2 %
Track quality 100.0 %
Test CRC 9225245F
Copy CRC 9225245F
Accurately ripped (confidence 2) [5C1EC95F]
Copy OK

Track 22

Filename F:\22 – They Love Me.wav

Peak level 98.2 %
Track quality 100.0 %
Test CRC 7E5BDC70
Copy CRC 7E5BDC70
Accurately ripped (confidence 2) [21976DCD]
Copy OK

Track 23

Filename F:\23 – Dirty Words.wav

Peak level 98.8 %
Track quality 100.0 %
Test CRC 99C1DEAA
Copy CRC 99C1DEAA
Accurately ripped (confidence 2) [0FED564A]
Copy OK

Track 24

Filename F:\24 – I Like Your Hair.wav

Peak level 38.5 %
Track quality 100.0 %
Test CRC 53BAF029
Copy CRC 53BAF029
Accurately ripped (confidence 2) [B106152F]
Copy OK

Track 25

Filename F:\25 – For The Ladies.wav

Peak level 98.2 %
Track quality 100.0 %
Test CRC 36A828CE
Copy CRC 36A828CE
Accurately ripped (confidence 2) [16D52638]
Copy OK

Track 26

Filename F:\26 – Golf Tournament.wav

Peak level 92.4 %
Track quality 99.6 %
Test CRC ECA7F3F3
Copy CRC ECA7F3F3
Accurately ripped (confidence 2) [98677102]
Copy OK

Track 27

Filename F:\27 – Giant Boobs.wav

Peak level 68.4 %
Track quality 99.3 %
Test CRC 433FC97E
Copy CRC 433FC97E
Accurately ripped (confidence 2) [F53A8809]
Copy OK

Track 28

Filename F:\28 – My Dad’s Weiner.wav

Peak level 72.5 %
Track quality 100.0 %
Test CRC 6CFB78D5
Copy CRC 6CFB78D5
Accurately ripped (confidence 2) [57AAF46A]
Copy OK

Track 29

Filename F:\29 – Fuck You Tom.wav

Peak level 56.5 %
Track quality 100.0 %
Test CRC F9827DA5
Copy CRC F9827DA5
Accurately ripped (confidence 2) [E28D26B6]
Copy OK

Track 30

Filename F:\30 – Give Me Your Shirt.wav

Peak level 62.2 %
Track quality 100.0 %
Test CRC 110D2526
Copy CRC 110D2526
Accurately ripped (confidence 2) [7CE36414]
Copy OK

Track 31

Filename F:\31 – Safe Sex.wav

Peak level 72.6 %
Track quality 100.0 %
Test CRC CEC65524
Copy CRC CEC65524
Accurately ripped (confidence 2) [D887D20E]
Copy OK

Track 32

Filename F:\32 – Girlfriends.wav

Peak level 98.2 %
Track quality 100.0 %
Test CRC 66D3EE7E
Copy CRC 66D3EE7E
Accurately ripped (confidence 2) [01CF4754]
Copy OK

Track 33

Filename F:\33 – Put Your Shirt Back On.wav

Peak level 98.2 %
Track quality 100.0 %
Test CRC C39F9978
Copy CRC C39F9978
Accurately ripped (confidence 2) [485F9A12]
Copy OK

Track 34

Filename F:\34 – Contact Lens.wav

Peak level 75.2 %
Track quality 100.0 %
Test CRC EE6266A7
Copy CRC EE6266A7
Accurately ripped (confidence 2) [C7D372C3]
Copy OK

Track 35

Filename F:\35 – Peepee.wav

Peak level 98.0 %
Track quality 100.0 %
Test CRC 1637A541
Copy CRC 1637A541
Accurately ripped (confidence 2) [ECEE876E]
Copy OK

Track 36

Filename F:\36 – Hurt Kid.wav

Peak level 98.2 %
Track quality 99.4 %
Test CRC 5D890E7B
Copy CRC 5D890E7B
Accurately ripped (confidence 2) [E48D8E96]
Copy OK

Track 37

Filename F:\37 – I Wish.wav

Peak level 64.9 %
Track quality 99.4 %
Test CRC F37AF7B7
Copy CRC F37AF7B7
Accurately ripped (confidence 2) [6C3D548D]
Copy OK

Track 38

Filename F:\38 – Sex With His Sister.wav

Peak level 98.2 %
Track quality 100.0 %
Test CRC 948E78A6
Copy CRC 948E78A6
Accurately ripped (confidence 3) [E4849DFA]
Copy OK

Track 39

Filename F:\39 – That Little Girl.wav

Peak level 49.1 %
Track quality 100.0 %
Test CRC DA6909A9
Copy CRC DA6909A9
Accurately ripped (confidence 2) [787F0FC9]
Copy OK

Track 40

Filename F:\40 – Rebecca.wav

Peak level 74.8 %
Track quality 100.0 %
Test CRC AAEDB446
Copy CRC AAEDB446
Accurately ripped (confidence 2) [498CC16F]
Copy OK

Track 41

Filename F:\41 – Still Have To Pee.wav

Peak level 50.1 %
Track quality 100.0 %
Test CRC 6F956FA0
Copy CRC 6F956FA0
Accurately ripped (confidence 2) [32080709]
Copy OK

Track 42

Filename F:\42 – Shave Your Ass.wav

Peak level 55.2 %
Track quality 100.0 %
Test CRC BDEDDE33
Copy CRC BDEDDE33
Accurately ripped (confidence 2) [83D7752E]
Copy OK

Track 43

Filename F:\43 – New Guitar.wav

Peak level 65.3 %
Track quality 100.0 %
Test CRC E157424C
Copy CRC E157424C
Accurately ripped (confidence 2) [A6089F35]
Copy OK

Track 44

Filename F:\44 – If I Were A Girl.wav

Peak level 91.2 %
Track quality 100.0 %
Test CRC 5234EE70
Copy CRC 5234EE70
Track not present in AccurateRip database
Copy OK

Track 45

Filename F:\45 – Bad Kids.wav

Peak level 98.1 %
Track quality 100.0 %
Test CRC F42B338E
Copy CRC F42B338E
Accurately ripped (confidence 2) [3BFFB90A]
Copy OK

Track 46

Filename F:\46 – Being Myself.wav

Peak level 68.2 %
Track quality 100.0 %
Test CRC 3B7CEE32
Copy CRC 3B7CEE32
Accurately ripped (confidence 2) [09CA4592]
Copy OK

Track 47

Filename F:\47 – Ugly Butt.wav

Peak level 98.0 %
Track quality 100.0 %
Test CRC 428C0C5F
Copy CRC 428C0C5F
Accurately ripped (confidence 2) [C733C33C]
Copy OK

Track 48

Filename F:\48 – Close Your Eyes.wav

Peak level 56.8 %
Track quality 98.1 %
Test CRC FFF60AC1
Copy CRC FFF60AC1
Track not present in AccurateRip database
Copy OK

Track 49

Filename F:\49 – Satan.wav

Peak level 98.3 %
Track quality 99.8 %
Test CRC A0CF2815
Copy CRC A0CF2815
Accurately ripped (confidence 2) [3B685FB1]
Copy OK

47 track(s) accurately ripped
2 track(s) not present in the AccurateRip database

Some tracks could not be verified as accurate

No errors occurred

End of status report

REM GENRE “Punk Rock”
REM DATE 2000
REM DISCID F010D531
REM COMMENT “ExactAudioCopy v0.99pb4”
PERFORMER “Blink-182”
TITLE “The Mark, Tom & Travis Show”
FILE “01 – Dumpweed.wav” WAVE
TRACK 01 AUDIO
TITLE “Dumpweed”
PERFORMER “Blink-182”
INDEX 01 00:00:00
FILE “02 – Don’t Leave Me.wav” WAVE
TRACK 02 AUDIO
TITLE “Don’t Leave Me”
PERFORMER “Blink-182”
INDEX 01 00:00:00
FILE “03 – Aliens Exist.wav” WAVE
TRACK 03 AUDIO
TITLE “Aliens Exist”
PERFORMER “Blink-182”
INDEX 01 00:00:00
FILE “04 – Family Reunion.wav” WAVE
TRACK 04 AUDIO
TITLE “Family Reunion”
PERFORMER “Blink-182”
INDEX 01 00:00:00
FILE “05 – Going Away To College.wav” WAVE
TRACK 05 AUDIO
TITLE “Going Away To College”
PERFORMER “Blink-182”
INDEX 01 00:00:00
FILE “06 – What’s My Age Again .wav” WAVE
TRACK 06 AUDIO
TITLE “What’s My Age Again?”
PERFORMER “Blink-182”
INDEX 01 00:00:00
FILE “07 – Rich Lips.wav” WAVE
TRACK 07 AUDIO
TITLE “Rich Lips”
PERFORMER “Blink-182”
INDEX 01 00:00:00
FILE “08 – Blew Job.wav” WAVE
TRACK 08 AUDIO
TITLE “Blew Job”
PERFORMER “Blink-182”
INDEX 01 00:00:00
FILE “09 – Untitled.wav” WAVE
TRACK 09 AUDIO
TITLE “Untitled”
PERFORMER “Blink-182”
INDEX 01 00:00:00
FILE “10 – Voyeur.wav” WAVE
TRACK 10 AUDIO
TITLE “Voyeur”
PERFORMER “Blink-182”
INDEX 01 00:00:00
FILE “11 – Pathetic.wav” WAVE
TRACK 11 AUDIO
TITLE “Pathetic”
PERFORMER “Blink-182”
INDEX 01 00:00:00
FILE “12 – Adam’s Song.wav” WAVE
TRACK 12 AUDIO
TITLE “Adam’s Song”
PERFORMER “Blink-182”
INDEX 01 00:00:00
FILE “13 – Peggy Sue.wav” WAVE
TRACK 13 AUDIO
TITLE “Peggy Sue”
PERFORMER “Blink-182”
INDEX 01 00:00:00
FILE “14 – Wendy Clear.wav” WAVE
TRACK 14 AUDIO
TITLE “Wendy Clear”
PERFORMER “Blink-182”
INDEX 01 00:00:00
FILE “15 – Carousel.wav” WAVE
TRACK 15 AUDIO
TITLE “Carousel”
PERFORMER “Blink-182”
INDEX 01 00:00:00
FILE “16 – All The Small Things.wav” WAVE
TRACK 16 AUDIO
TITLE “All The Small Things”
PERFORMER “Blink-182”
INDEX 01 00:00:00
FILE “17 – Mutt.wav” WAVE
TRACK 17 AUDIO
TITLE “Mutt”
PERFORMER “Blink-182”
INDEX 01 00:00:00
FILE “18 – The Country Song.wav” WAVE
TRACK 18 AUDIO
TITLE “The Country Song”
PERFORMER “Blink-182”
INDEX 01 00:00:00
FILE “19 – Dammit.wav” WAVE
TRACK 19 AUDIO
TITLE “Dammit”
PERFORMER “Blink-182”
INDEX 01 00:00:00
FILE “20 – Man Overboard.wav” WAVE
TRACK 20 AUDIO
TITLE “Man Overboard”
PERFORMER “Blink-182”
INDEX 01 00:00:00
FILE “21 – Nudist Colony.wav” WAVE
TRACK 21 AUDIO
TITLE “Nudist Colony”
PERFORMER “Blink-182”
INDEX 01 00:00:00
FILE “22 – They Love Me.wav” WAVE
TRACK 22 AUDIO
TITLE “They Love Me”
PERFORMER “Blink-182”
INDEX 01 00:00:00
FILE “23 – Dirty Words.wav” WAVE
TRACK 23 AUDIO
TITLE “Dirty Words”
PERFORMER “Blink-182”
INDEX 01 00:00:00
FILE “24 – I Like Your Hair.wav” WAVE
TRACK 24 AUDIO
TITLE “I Like Your Hair”
PERFORMER “Blink-182”
INDEX 01 00:00:00
FILE “25 – For The Ladies.wav” WAVE
TRACK 25 AUDIO
TITLE “For The Ladies”
PERFORMER “Blink-182”
INDEX 01 00:00:00
FILE “26 – Golf Tournament.wav” WAVE
TRACK 26 AUDIO
TITLE “Golf Tournament”
PERFORMER “Blink-182”
INDEX 01 00:00:00
FILE “27 – Giant Boobs.wav” WAVE
TRACK 27 AUDIO
TITLE “Giant Boobs”
PERFORMER “Blink-182”
INDEX 01 00:00:00
FILE “28 – My Dad’s Weiner.wav” WAVE
TRACK 28 AUDIO
TITLE “My Dad’s Weiner”
PERFORMER “Blink-182”
INDEX 01 00:00:00
FILE “29 – Fuck You Tom.wav” WAVE
TRACK 29 AUDIO
TITLE “Fuck You Tom”
PERFORMER “Blink-182”
INDEX 01 00:00:00
FILE “30 – Give Me Your Shirt.wav” WAVE
TRACK 30 AUDIO
TITLE “Give Me Your Shirt”
PERFORMER “Blink-182”
INDEX 01 00:00:00
FILE “31 – Safe Sex.wav” WAVE
TRACK 31 AUDIO
TITLE “Safe Sex”
PERFORMER “Blink-182”
INDEX 01 00:00:00
FILE “32 – Girlfriends.wav” WAVE
TRACK 32 AUDIO
TITLE “Girlfriends”
PERFORMER “Blink-182”
INDEX 01 00:00:00
FILE “33 – Put Your Shirt Back On.wav” WAVE
TRACK 33 AUDIO
TITLE “Put Your Shirt Back On”
PERFORMER “Blink-182”
INDEX 01 00:00:00
FILE “34 – Contact Lens.wav” WAVE
TRACK 34 AUDIO
TITLE “Contact Lens”
PERFORMER “Blink-182”
INDEX 01 00:00:00
FILE “35 – Peepee.wav” WAVE
TRACK 35 AUDIO
TITLE “Peepee”
PERFORMER “Blink-182”
INDEX 01 00:00:00
FILE “36 – Hurt Kid.wav” WAVE
TRACK 36 AUDIO
TITLE “Hurt Kid”
PERFORMER “Blink-182”
INDEX 01 00:00:00
FILE “37 – I Wish.wav” WAVE
TRACK 37 AUDIO
TITLE “I Wish”
PERFORMER “Blink-182”
INDEX 01 00:00:00
FILE “38 – Sex With His Sister.wav” WAVE
TRACK 38 AUDIO
TITLE “Sex With His Sister”
PERFORMER “Blink-182”
INDEX 01 00:00:00
FILE “39 – That Little Girl.wav” WAVE
TRACK 39 AUDIO
TITLE “That Little Girl”
PERFORMER “Blink-182”
INDEX 01 00:00:00
FILE “40 – Rebecca.wav” WAVE
TRACK 40 AUDIO
TITLE “Rebecca”
PERFORMER “Blink-182”
INDEX 01 00:00:00
FILE “41 – Still Have To Pee.wav” WAVE
TRACK 41 AUDIO
TITLE “Still Have To Pee”
PERFORMER “Blink-182”
INDEX 01 00:00:00
FILE “42 – Shave Your Ass.wav” WAVE
TRACK 42 AUDIO
TITLE “Shave Your Ass”
PERFORMER “Blink-182”
INDEX 01 00:00:00
FILE “43 – New Guitar.wav” WAVE
TRACK 43 AUDIO
TITLE “New Guitar”
PERFORMER “Blink-182”
INDEX 01 00:00:00
FILE “44 – If I Were A Girl.wav” WAVE
TRACK 44 AUDIO
TITLE “If I Were A Girl”
PERFORMER “Blink-182”
INDEX 01 00:00:00
FILE “45 – Bad Kids.wav” WAVE
TRACK 45 AUDIO
TITLE “Bad Kids”
PERFORMER “Blink-182”
INDEX 01 00:00:00
FILE “46 – Being Myself.wav” WAVE
TRACK 46 AUDIO
TITLE “Being Myself”
PERFORMER “Blink-182”
INDEX 01 00:00:00
FILE “47 – Ugly Butt.wav” WAVE
TRACK 47 AUDIO
TITLE “Ugly Butt”
PERFORMER “Blink-182”
INDEX 01 00:00:00
FILE “48 – Close Your Eyes.wav” WAVE
TRACK 48 AUDIO
TITLE “Close Your Eyes”
PERFORMER “Blink-182”
INDEX 01 00:00:00
FILE “49 – Satan.wav” WAVE
TRACK 49 AUDIO
TITLE “Satan”
PERFORMER “Blink-182”
INDEX 01 00:00:00

Leave a Reply

Your email address will not be published. Required fields are marked *

This site uses Akismet to reduce spam. Learn how your comment data is processed.