Blink-182 – Greatest Hits (Japanese Edition)




Artist: Blink-182
Year: 2005
Genre: Punk
Notes: Discogs
Add. Notes: Japanese Edition
Cover incl.: Yes
Encoder: FLAC
Bitrate: ~1000 kBit/s (44.1 kHz/16 Bit/s)
Log & Cue incl.: Yes
Size: 475 MB
Password: “slam” (without ” “)


All Downloads/Hosters are compatible

Download 1
KatFile.com
Turbobit.net
Rapidgator.net
Download 2
KatFile.com
Turbobit.net
Rapidgator.net

Tracklist:

1 - Carousel - 3:11
2 - M+M's - 2:35
3 - Dammit - 2:46
4 - Josie - 3:05
5 - What's My Age Again? - 2:29
6 - All The Small Things - 2:51
7 - Adam's Song - 4:07
8 - Man Overboard - 2:46
9 - The Rock Show - 2:51
10 - First Date - 2:51
11 - Stay Together For The Kids - 
3:52
12 - Feeling This - 2:53
13 - I Miss You - 3:47
14 - Down - 3:13
15 - Always - 4:17
16 - Not Now - 4:23
17 - Another Girl Another Planet - 
2:41
Bonus Tracks For Japan Only
18 - I Won't Be Home For Christmas - 
3:19
19 - Don't Tell Me It's Over - 2:34
20 - I Miss You (Live In Minneapolis) - 
3:59

EAC-Log, CUE-Sheed & NFO:

Click to open spoiler
Exact Audio Copy V0.99 prebeta 3 from 28. July 2007

EAC extraction logfile from 29. December 2007, 23:59

Blink-182 / Greatest Hits

Used drive : Optiarc DVD RW AD-5170A Adapter: 5 ID: 1

Read mode : Secure
Utilize accurate stream : Yes
Defeat audio cache : Yes
Make use of C2 pointers : No

Read offset correction : 48
Overread into Lead-In and Lead-Out : No
Fill up missing offset samples with silence : Yes
Delete leading and trailing silent blocks : No
Null samples used in CRC calculations : No
Used interface : Installed external ASPI interface
Gap handling : Appended to previous track

Used output format : User Defined Encoder
Selected bitrate : 192 kBit/s
Quality : High
Add ID3 tag : No
Command line compressor : flac.exe
Additional command line options : -8 -A tukey(0.25) -A gauss(0.1875) -b 4096 -V -T “artist=%a” -T “title=%t” -T “album=%g” -T “date=%y” -T “tracknumber=%n” -T “genre=%m” %s –sector-align

TOC of the extracted CD

Track | Start | Length | Start sector | End sector
———————————————————
1 | 0:00.00 | 3:11.50 | 0 | 14374
2 | 3:11.50 | 2:35.59 | 14375 | 26058
3 | 5:47.34 | 2:46.20 | 26059 | 38528
4 | 8:33.54 | 3:05.48 | 38529 | 52451
5 | 11:39.27 | 2:29.35 | 52452 | 63661
6 | 14:08.62 | 2:51.05 | 63662 | 76491
7 | 16:59.67 | 4:07.17 | 76492 | 95033
8 | 21:07.09 | 2:46.52 | 95034 | 107535
9 | 23:53.61 | 2:51.10 | 107536 | 120370
10 | 26:44.71 | 2:51.21 | 120371 | 133216
11 | 29:36.17 | 3:52.54 | 133217 | 150670
12 | 33:28.71 | 2:53.71 | 150671 | 163716
13 | 36:22.67 | 3:47.61 | 163717 | 180802
14 | 40:10.53 | 3:13.01 | 180803 | 195278
15 | 43:23.54 | 4:17.46 | 195279 | 214599
16 | 47:41.25 | 4:23.43 | 214600 | 234367
17 | 52:04.68 | 2:42.25 | 234368 | 246542
18 | 54:47.18 | 3:18.57 | 246543 | 261449
19 | 58:06.00 | 2:33.70 | 261450 | 272994
20 | 60:39.70 | 3:59.32 | 272995 | 290951

Track 1

Filename C:\Rips\Blink-182\(2005) Greatest Hits\Blink-182 01 – Carousel.wav

Pre-gap length 0:00:02.00

Peak level 86.2 %
Track quality 100.0 %
Copy CRC E05CA8BF
Track not present in AccurateRip database
Copy OK

Track 2

Filename C:\Rips\Blink-182\(2005) Greatest Hits\Blink-182 02 – M+M’s.wav

Pre-gap length 0:00:00.65

Peak level 97.6 %
Track quality 100.0 %
Copy CRC A27E0F2C
Track not present in AccurateRip database
Copy OK

Track 3

Filename C:\Rips\Blink-182\(2005) Greatest Hits\Blink-182 03 – Dammit.wav

Pre-gap length 0:00:00.08

Peak level 97.7 %
Track quality 100.0 %
Copy CRC CCDD660B
Track not present in AccurateRip database
Copy OK

Track 4

Filename C:\Rips\Blink-182\(2005) Greatest Hits\Blink-182 04 – Josie.wav

Peak level 97.7 %
Track quality 99.9 %
Copy CRC D8FDE5C9
Track not present in AccurateRip database
Copy OK

Track 5

Filename C:\Rips\Blink-182\(2005) Greatest Hits\Blink-182 05 – What’s My Age Again .wav

Pre-gap length 0:00:00.20

Peak level 96.8 %
Track quality 100.0 %
Copy CRC 836BC7E0
Track not present in AccurateRip database
Copy OK

Track 6

Filename C:\Rips\Blink-182\(2005) Greatest Hits\Blink-182 06 – All the Small Things.wav

Pre-gap length 0:00:00.72

Peak level 96.8 %
Track quality 100.0 %
Copy CRC 1955868E
Track not present in AccurateRip database
Copy OK

Track 7

Filename C:\Rips\Blink-182\(2005) Greatest Hits\Blink-182 07 – Adam’s Song.wav

Peak level 96.8 %
Track quality 100.0 %
Copy CRC 1A704C94
Track not present in AccurateRip database
Copy OK

Track 8

Filename C:\Rips\Blink-182\(2005) Greatest Hits\Blink-182 08 – Man Overboard.wav

Pre-gap length 0:00:01.07

Peak level 96.6 %
Track quality 99.9 %
Copy CRC 154089DA
Accurately ripped (confidence 1) [B88AB35E]
Copy OK

Track 9

Filename C:\Rips\Blink-182\(2005) Greatest Hits\Blink-182 09 – The Rock Show.wav

Peak level 97.1 %
Track quality 100.0 %
Copy CRC 7B189BC4
Track not present in AccurateRip database
Copy OK

Track 10

Filename C:\Rips\Blink-182\(2005) Greatest Hits\Blink-182 10 – First Date.wav

Pre-gap length 0:00:00.05

Peak level 96.6 %
Track quality 100.0 %
Copy CRC 783A66E6
Track not present in AccurateRip database
Copy OK

Track 11

Filename C:\Rips\Blink-182\(2005) Greatest Hits\Blink-182 11 – Stay Together for the Kids.wav

Pre-gap length 0:00:00.12

Peak level 96.6 %
Track quality 100.0 %
Copy CRC 02AED888
Track not present in AccurateRip database
Copy OK

Track 12

Filename C:\Rips\Blink-182\(2005) Greatest Hits\Blink-182 12 – Feeling This.wav

Pre-gap length 0:00:00.15

Peak level 97.3 %
Track quality 100.0 %
Copy CRC E04031C0
Track not present in AccurateRip database
Copy OK

Track 13

Filename C:\Rips\Blink-182\(2005) Greatest Hits\Blink-182 13 – I Miss You.wav

Pre-gap length 0:00:00.13

Peak level 96.6 %
Track quality 99.9 %
Copy CRC 2D1337DF
Track not present in AccurateRip database
Copy OK

Track 14

Filename C:\Rips\Blink-182\(2005) Greatest Hits\Blink-182 14 – Down.wav

Peak level 96.6 %
Track quality 99.9 %
Copy CRC 90EE7872
Track not present in AccurateRip database
Copy OK

Track 15

Filename C:\Rips\Blink-182\(2005) Greatest Hits\Blink-182 15 – Always.wav

Peak level 96.6 %
Track quality 100.0 %
Copy CRC 9D697479
Track not present in AccurateRip database
Copy OK

Track 16

Filename C:\Rips\Blink-182\(2005) Greatest Hits\Blink-182 16 – Not Now.wav

Peak level 96.6 %
Track quality 100.0 %
Copy CRC 369287BE
Accurately ripped (confidence 1) [AAD38597]
Copy OK

Track 17

Filename C:\Rips\Blink-182\(2005) Greatest Hits\Blink-182 17 – Another Girl Another Planet.wav

Peak level 96.6 %
Track quality 100.0 %
Copy CRC 7EB584DF
Accurately ripped (confidence 1) [288C353A]
Copy OK

Track 18

Filename C:\Rips\Blink-182\(2005) Greatest Hits\Blink-182 18 – I Won’t Be Home For Christmas (Japanese bonus track).wav

Pre-gap length 0:00:01.20

Peak level 93.3 %
Track quality 100.0 %
Copy CRC 5D6527F7
Accurately ripped (confidence 1) [CE390F86]
Copy OK

Track 19

Filename C:\Rips\Blink-182\(2005) Greatest Hits\Blink-182 19 – Don’t Tell Me It’s Over (Japanese bonus track).wav

Pre-gap length 0:00:01.47

Peak level 92.7 %
Track quality 100.0 %
Copy CRC 8E688EC7
Accurately ripped (confidence 1) [8E3D362F]
Copy OK

Track 20

Filename C:\Rips\Blink-182\(2005) Greatest Hits\Blink-182 20 – I Miss You(Live in Minneapolis) (Japanese bonus track).wav

Pre-gap length 0:00:01.40

Peak level 97.7 %
Track quality 99.9 %
Copy CRC D77E9FF4
Accurately ripped (confidence 1) [4D952B15]
Copy OK

6 track(s) accurately ripped
14 track(s) not present in the AccurateRip database

Some tracks could not be verified as accurate

No errors occurred

End of status report

REM GENRE “Punk Rock”
REM DATE 2005
REM DISCID 090F2714
REM COMMENT “ExactAudioCopy v0.99pb3”
PERFORMER “Blink-182”
TITLE “Greatest Hits ”
FILE “01 – Carousel.wav” WAVE
TRACK 01 AUDIO
TITLE “Carousel”
PERFORMER “Blink-182”
INDEX 01 00:00:00
TRACK 02 AUDIO
TITLE “M+M’s”
PERFORMER “Blink-182”
INDEX 00 03:10:60
FILE “02 – M+M’s.wav” WAVE
INDEX 01 00:00:00
TRACK 03 AUDIO
TITLE “Dammit”
PERFORMER “Blink-182”
INDEX 00 02:35:51
FILE “03 – Dammit.wav” WAVE
INDEX 01 00:00:00
FILE “04 – Josie.wav” WAVE
TRACK 04 AUDIO
TITLE “Josie”
PERFORMER “Blink-182”
INDEX 01 00:00:00
TRACK 05 AUDIO
TITLE “What’s My Age Again?”
PERFORMER “Blink-182”
INDEX 00 03:05:28
FILE “05 – What’s My Age Again .wav” WAVE
INDEX 01 00:00:00
TRACK 06 AUDIO
TITLE “All the Small Things”
PERFORMER “Blink-182”
INDEX 00 02:28:38
FILE “06 – All the Small Things.wav” WAVE
INDEX 01 00:00:00
FILE “07 – Adam’s Song.wav” WAVE
TRACK 07 AUDIO
TITLE “Adam’s Song”
PERFORMER “Blink-182”
INDEX 01 00:00:00
TRACK 08 AUDIO
TITLE “Man Overboard”
PERFORMER “Blink-182”
INDEX 00 04:06:10
FILE “08 – Man Overboard.wav” WAVE
INDEX 01 00:00:00
FILE “09 – The Rock Show.wav” WAVE
TRACK 09 AUDIO
TITLE “The Rock Show”
PERFORMER “Blink-182”
INDEX 01 00:00:00
TRACK 10 AUDIO
TITLE “First Date”
PERFORMER “Blink-182”
INDEX 00 02:51:05
FILE “10 – First Date.wav” WAVE
INDEX 01 00:00:00
TRACK 11 AUDIO
TITLE “Stay Together for the Kids”
PERFORMER “Blink-182”
INDEX 00 02:51:09
FILE “11 – Stay Together for the Kids.wav” WAVE
INDEX 01 00:00:00
TRACK 12 AUDIO
TITLE “Feeling This”
PERFORMER “Blink-182”
INDEX 00 03:52:39
FILE “12 – Feeling This.wav” WAVE
INDEX 01 00:00:00
TRACK 13 AUDIO
TITLE “I Miss You”
PERFORMER “Blink-182”
INDEX 00 02:53:58
FILE “13 – I Miss You.wav” WAVE
INDEX 01 00:00:00
FILE “14 – Down.wav” WAVE
TRACK 14 AUDIO
TITLE “Down”
PERFORMER “Blink-182”
INDEX 01 00:00:00
FILE “15 – Always.wav” WAVE
TRACK 15 AUDIO
TITLE “Always”
PERFORMER “Blink-182”
INDEX 01 00:00:00
FILE “16 – Not Now.wav” WAVE
TRACK 16 AUDIO
TITLE “Not Now”
PERFORMER “Blink-182”
INDEX 01 00:00:00
FILE “17 – Another Girl Another Planet.wav” WAVE
TRACK 17 AUDIO
TITLE “Another Girl Another Planet”
PERFORMER “Blink-182”
INDEX 01 00:00:00
TRACK 18 AUDIO
TITLE “I Won’t Be Home For Christmas (Japanese bonus track)”
PERFORMER “Blink-182”
INDEX 00 02:41:05
FILE “18 – I Won’t Be Home For Christmas (Japanese bonus track).wav” WAVE
INDEX 01 00:00:00
TRACK 19 AUDIO
TITLE “Don’t Tell Me It’s Over (Japanese bonus track)”
PERFORMER “Blink-182”
INDEX 00 03:17:10
FILE “19 – Don’t Tell Me It’s Over (Japanese bonus track).wav” WAVE
INDEX 01 00:00:00
TRACK 20 AUDIO
TITLE “I Miss You(Live in Minneapolis) (Japanese bonus track)”
PERFORMER “Blink-182”
INDEX 00 02:32:30
FILE “20 – I Miss You (Live in Minneapolis) (Japanese bonus track).wav” WAVE
INDEX 01 00:00:00


Leave a Reply

Your email address will not be published. Required fields are marked *

This site uses Akismet to reduce spam. Learn how your comment data is processed.