Blink-182 – Enema Of The State (Limited Edition)




Artist: Blink-182
Year: 1999
Genre: Rock
Notes: Discogs
Add. Notes: Limited Edition
Cover incl.: Yes
Encoder: FLAC
Bitrate: ~1100 kBit/s (44.1 kHz/16 Bit/s)
Log & Cue incl.: Yes
Size: 475,54 MB
Password: “slam” (without ” “)


All Downloads/Hosters are compatible

Download 1
Turbobit.net
Rapidgator.net
UploadByte.com
UploadEver.com
JustUpload.io
Download 2
Turbobit.net
Rapidgator.net
UploadByte.com
UploadEver.com
JustUpload.io
Download 3
Turbobit.net
Rapidgator.net
UploadByte.com
UploadEver.com
JustUpload.io

Tracklist:

1 - Dumpweed - 2:23
2 - Don't Leave Me - 2:23
3 - Aliens Exist - 3:13
4 - Going Away To College - 2:59
5 - What's My Age Again? - 2:58
6 - Dysentery Gary - 2:45
7 - Adam's Song - 4:09
8 - All The Small Things - 2:48
9 - The Party Song - 2:19
10 - Mutt - 3:23
11 - Wendy Clear - 2:50
12 - Anthem - 3:37
13 - Pathetic (Live In LA) - 3:04
14 - Untitled (Live In LA) - 2:45
15 - Josie (Live In LA) - 4:17
16 - Aliens Exist (Live In LA) - 3:16
Bonus CD
1 - All The Small Things [Single Edit] - 2:54
2 - Dumpweed (Live In London) - 3:25
3 - What's My Age Again? (Live In London) - 3:18
4 - All The Small Things (Live In London) - 4:05
5 - Dammit (Live In London) - 2:36

EAC-Log, CUE-Sheed & NFO:

Click to open spoiler
Exact Audio Copy V1.0 beta 3 from 29. August 2011

EAC extraction logfile from 14. October 2011, 16:55

Blink-182 / Enema Of The State

Used drive : ASUS DRW-22B2S Adapter: 0 ID: 1

Read mode : Secure
Utilize accurate stream : Yes
Defeat audio cache : Yes
Make use of C2 pointers : No

Read offset correction : 6
Overread into Lead-In and Lead-Out : No
Fill up missing offset samples with silence : Yes
Delete leading and trailing silent blocks : No
Null samples used in CRC calculations : Yes
Used interface : Native Win32 interface for Win NT & 2000
Gap handling : Appended to previous track

Used output format : User Defined Encoder
Selected bitrate : 1024 kBit/s
Quality : High
Add ID3 tag : No
Command line compressor : F:\soft\Program Files\Exact Audio Copy\Flac\flac.exe
Additional command line options : -V -8 -T “Genre=%genre%” -T “Artist=%artist%” -T “Title=%title%” -T “Album=%albumtitle%” -T “Date=%year%” -T “Tracknumber=%tracknr%” %source%

TOC of the extracted CD

Track | Start | Length | Start sector | End sector
———————————————————
1 | 0:00.00 | 2:23.62 | 0 | 10786
2 | 2:23.62 | 2:23.43 | 10787 | 21554
3 | 4:47.30 | 3:12.72 | 21555 | 36026
4 | 8:00.27 | 2:59.25 | 36027 | 49476
5 | 10:59.52 | 2:28.30 | 49477 | 60606
6 | 13:28.07 | 2:45.28 | 60607 | 73009
7 | 16:13.35 | 4:09.47 | 73010 | 91731
8 | 20:23.07 | 2:48.10 | 91732 | 104341
9 | 23:11.17 | 2:19.35 | 104342 | 114801
10 | 25:30.52 | 3:23.28 | 114802 | 130054
11 | 28:54.05 | 2:50.37 | 130055 | 142841
12 | 31:44.42 | 3:39.08 | 142842 | 159274
13 | 35:23.50 | 3:04.02 | 159275 | 173076
14 | 38:27.52 | 2:44.43 | 173077 | 185419
15 | 41:12.20 | 4:17.00 | 185420 | 204694
16 | 45:29.20 | 3:15.40 | 204695 | 219359
17 | 51:16.60 | 9:43.51 | 230760 | 274535

Track 1

Filename D:\01 – Dumpweed.wav

Pre-gap length 0:00:02.00

Peak level 99.0 %
Extraction speed 3.1 X
Track quality 100.0 %
Test CRC 8C87AFA7
Copy CRC 8C87AFA7
Accurately ripped (confidence 2) [7D8DD31B] (AR v2)
Copy OK

Track 2

Filename D:\02 – Don’t Leave Me.wav

Peak level 99.0 %
Extraction speed 5.1 X
Track quality 100.0 %
Test CRC 7C46F1CB
Copy CRC 7C46F1CB
Accurately ripped (confidence 2) [920EF9C4] (AR v2)
Copy OK

Track 3

Filename D:\03 – Aliens Exist.wav

Peak level 99.0 %
Extraction speed 5.7 X
Track quality 100.0 %
Test CRC 42AD55E8
Copy CRC 42AD55E8
Accurately ripped (confidence 2) [5C0C5106] (AR v2)
Copy OK

Track 4

Filename D:\04 – Going Away to College.wav

Peak level 99.0 %
Extraction speed 6.1 X
Track quality 100.0 %
Test CRC 9C034CF3
Copy CRC 9C034CF3
Accurately ripped (confidence 2) [EAC84052] (AR v2)
Copy OK

Track 5

Filename D:\05 – What’s My Age Again.wav

Peak level 99.0 %
Extraction speed 5.1 X
Track quality 99.9 %
Test CRC 548C9EAE
Copy CRC 548C9EAE
Accurately ripped (confidence 2) [9290A854] (AR v2)
Copy OK

Track 6

Filename D:\06 – Dysentery Gary.wav

Peak level 99.0 %
Extraction speed 6.5 X
Track quality 100.0 %
Test CRC C22726E3
Copy CRC C22726E3
Accurately ripped (confidence 2) [F2F624C1] (AR v2)
Copy OK

Track 7

Filename D:\07 – Adam’s Song.wav

Peak level 99.1 %
Extraction speed 6.5 X
Track quality 99.9 %
Test CRC 4C74DF16
Copy CRC 4C74DF16
Accurately ripped (confidence 2) [DEAFDBD8] (AR v2)
Copy OK

Track 8

Filename D:\08 – All The Small Things.wav

Peak level 99.0 %
Extraction speed 7.2 X
Track quality 100.0 %
Test CRC 985B3CC2
Copy CRC 985B3CC2
Accurately ripped (confidence 2) [290DEC41] (AR v2)
Copy OK

Track 9

Filename D:\09 – The Party Song.wav

Peak level 99.1 %
Extraction speed 7.2 X
Track quality 100.0 %
Test CRC FEBB9252
Copy CRC FEBB9252
Accurately ripped (confidence 2) [F8235D3C] (AR v2)
Copy OK

Track 10

Filename D:\10 – Mutt.wav

Peak level 99.3 %
Extraction speed 7.9 X
Track quality 100.0 %
Test CRC 9DCCDCED
Copy CRC 9DCCDCED
Accurately ripped (confidence 2) [619FBE0E] (AR v2)
Copy OK

Track 11

Filename D:\11 – Wendy Clear.wav

Peak level 99.1 %
Extraction speed 8.0 X
Track quality 100.0 %
Test CRC 68358D91
Copy CRC 68358D91
Accurately ripped (confidence 2) [4339A542] (AR v2)
Copy OK

Track 12

Filename D:\12 – Anthem.wav

Peak level 99.0 %
Extraction speed 7.5 X
Track quality 99.9 %
Test CRC 7DDD6FE7
Copy CRC 7DDD6FE7
Accurately ripped (confidence 2) [A2B1C490] (AR v2)
Copy OK

Track 13

Filename D:\13 – Pathetic (Live in LA).wav

Pre-gap length 0:00:01.60

Peak level 100.0 %
Extraction speed 8.6 X
Track quality 100.0 %
Test CRC 6186AC94
Copy CRC 6186AC94
Accurately ripped (confidence 2) [42829DF2] (AR v2)
Copy OK

Track 14

Filename D:\14 – Untitled (Live in LA).wav

Peak level 100.0 %
Extraction speed 8.6 X
Track quality 100.0 %
Test CRC EFE69D50
Copy CRC EFE69D50
Accurately ripped (confidence 2) [D6FBD64C] (AR v2)
Copy OK

Track 15

Filename D:\15 – Josie (Live in LA).wav

Peak level 100.0 %
Extraction speed 9.4 X
Track quality 100.0 %
Test CRC 9F1D194F
Copy CRC 9F1D194F
Accurately ripped (confidence 2) [AE770FA2] (AR v2)
Copy OK

Track 16

Filename D:\16 – Aliens Exist (Live in LA).wav

Peak level 100.0 %
Extraction speed 8.1 X
Track quality 99.9 %
Test CRC 5BE28400
Copy CRC 5BE28400
Accurately ripped (confidence 2) [3C169212] (AR v2)
Copy OK

All tracks accurately ripped

No errors occurred

End of status report

==== Log checksum 48B7DA7C355EA4082218ADF48E94A96CFC2BDF5EADFCA7A043450F073CF789AA ====

REM GENRE Pop-Punk
REM DATE 1999
REM DISCID E60E4C11
REM COMMENT “ExactAudioCopy v1.0b3”
CATALOG 0000881119501
PERFORMER “Blink-182”
TITLE “Enema Of The State”
FILE “01 – Dumpweed.wav” WAVE
TRACK 01 AUDIO
TITLE “Dumpweed”
PERFORMER “Blink-182”
ISRC H2De19959117
INDEX 01 00:00:00
FILE “02 – Don’t Leave Me.wav” WAVE
TRACK 02 AUDIO
TITLE “Don’t Leave Me”
PERFORMER “Blink-182”
ISRC H2De19959118
INDEX 01 00:00:00
FILE “03 – Aliens Exist.wav” WAVE
TRACK 03 AUDIO
TITLE “Aliens Exist”
PERFORMER “Blink-182”
ISRC H2De19959119
INDEX 01 00:00:00
FILE “04 – Going Away to College.wav” WAVE
TRACK 04 AUDIO
TITLE “Going Away to College”
PERFORMER “Blink-182”
ISRC H2De19959120
INDEX 01 00:00:00
FILE “05 – What’s My Age Again.wav” WAVE
TRACK 05 AUDIO
TITLE “What’s My Age Again”
PERFORMER “Blink-182”
ISRC H2De19959007
INDEX 01 00:00:00
FILE “06 – Dysentery Gary.wav” WAVE
TRACK 06 AUDIO
TITLE “Dysentery Gary”
PERFORMER “Blink-182”
ISRC H2De19959121
INDEX 01 00:00:00
FILE “07 – Adam’s Song.wav” WAVE
TRACK 07 AUDIO
TITLE “Adam’s Song”
PERFORMER “Blink-182”
ISRC H2De19959122
INDEX 01 00:00:00
FILE “08 – All The Small Things.wav” WAVE
TRACK 08 AUDIO
TITLE “All The Small Things”
PERFORMER “Blink-182”
ISRC H2De19959123
INDEX 01 00:00:00
FILE “09 – The Party Song.wav” WAVE
TRACK 09 AUDIO
TITLE “The Party Song”
PERFORMER “Blink-182”
ISRC H2De19959124
INDEX 01 00:00:00
FILE “10 – Mutt.wav” WAVE
TRACK 10 AUDIO
TITLE “Mutt”
PERFORMER “Blink-182”
ISRC H2De19959125
INDEX 01 00:00:00
FILE “11 – Wendy Clear.wav” WAVE
TRACK 11 AUDIO
TITLE “Wendy Clear”
PERFORMER “Blink-182”
ISRC H2De19959126
INDEX 01 00:00:00
FILE “12 – Anthem.wav” WAVE
TRACK 12 AUDIO
TITLE “Anthem”
PERFORMER “Blink-182”
ISRC H2De19959127
INDEX 01 00:00:00
TRACK 13 AUDIO
TITLE “Pathetic (Live in LA)”
PERFORMER “Blink-182”
ISRC H2De19959195
INDEX 00 03:37:23
FILE “13 – Pathetic (Live in LA).wav” WAVE
INDEX 01 00:00:00
FILE “14 – Untitled (Live in LA).wav” WAVE
TRACK 14 AUDIO
TITLE “Untitled (Live in LA)”
PERFORMER “Blink-182”
ISRC H2De19959196
INDEX 01 00:00:00
FILE “15 – Josie (Live in LA).wav” WAVE
TRACK 15 AUDIO
TITLE “Josie (Live in LA)”
PERFORMER “Blink-182”
ISRC H2De19959197
INDEX 01 00:00:00
FILE “16 – Aliens Exist (Live in LA).wav” WAVE
TRACK 16 AUDIO
TITLE “Aliens Exist (Live in LA)”
PERFORMER “Blink-182”
ISRC H2De19959197
INDEX 01 00:00:00

Leave a Reply

Your email address will not be published. Required fields are marked *

This site uses Akismet to reduce spam. Learn how your comment data is processed.